<?xml version="1.0" standalone="no"?>
<!DOCTYPE svg PUBLIC "-//W3C//DTD SVG 1.1//EN" "http://www.w3.org/Graphics/SVG/1.1/DTD/svg11.dtd" >
<svg xmlns="http://www.w3.org/2000/svg" xmlns:xlink="http://www.w3.org/1999/xlink" version="1.1">
<metadata>
Created by FontForge 20170731 at Sat Apr  9 21:37:06 2011
 By Aleksey,,,
(c) 2011, Copyright by Lineto. All rights reserved.
</metadata>
<defs>
<font id="BrownPro-BoldItalic" horiz-adv-x="590" >
  <font-face 
    font-family="BrownPro"
    font-weight="700"
    font-style="italic"
    font-stretch="normal"
    units-per-em="1000"
    panose-1="0 1 8 0 1 1 1 1 1 1"
    ascent="750"
    descent="-250"
    x-height="475"
    cap-height="700"
    bbox="-137 -250 1439 1150"
    underline-thickness="80"
    underline-position="-260"
    slope="-10"
    unicode-range="U+000D-FB04"
  />
<missing-glyph horiz-adv-x="570" 
d="M75 0v700h420v-700h-420zM195 585v-470h180v470h-180z" />
    <glyph glyph-name="f_f_l" unicode="ffl" horiz-adv-x="1140" 
d="M893 0l64 365h-260l-64 -365h-131l64 365h-270l-64 -365h-131l64 365h-125l20 110h125l8 45q14 81 44 121q31 43 83 66t112 23q36 0 85 -13l-38 -109q-24 7 -46 7q-54 0 -82 -31q-19 -21 -27 -64l-8 -45h270l8 45q14 81 44 121q31 43 83 66t112 23q36 0 85 -13l-38 -109
q-24 7 -46 7q-54 0 -82 -31q-19 -21 -27 -64l-8 -45h260l42 235h131l-126 -710h-131z" />
    <glyph glyph-name="f_f" unicode="ff" horiz-adv-x="873" 
d="M918 717l-38 -109q-24 7 -46 7q-54 0 -82 -31q-19 -21 -27 -64l-8 -45h155l-20 -110h-155l-64 -365h-131l64 365h-270l-64 -365h-131l64 365h-125l20 110h125l8 45q14 81 44 121q31 43 83 66t112 23q36 0 85 -13l-38 -109q-24 7 -46 7q-54 0 -82 -31q-19 -21 -27 -64
l-8 -45h270l8 45q14 81 44 121q31 43 83 66t112 23q36 0 85 -13z" />
    <glyph glyph-name="f_f_i" unicode="ffi" horiz-adv-x="1140" 
d="M918 717l-38 -109q-24 7 -46 7q-54 0 -82 -31q-19 -21 -27 -64l-8 -45h391l-84 -475h-131l64 365h-260l-64 -365h-131l64 365h-270l-64 -365h-131l64 365h-125l20 110h125l8 45q14 81 44 121q31 43 83 66t112 23q36 0 85 -13l-38 -109q-24 7 -46 7q-54 0 -82 -31
q-19 -21 -27 -64l-8 -45h270l8 45q14 81 44 121q31 43 83 66t112 23q36 0 85 -13zM988 647q0 35 25 59t60 24t60 -24t25 -59t-25 -59t-60 -24t-60 24t-25 59z" />
    <glyph glyph-name="f_i" unicode="fi" horiz-adv-x="739" 
d="M517 717l-38 -109q-24 7 -46 7q-54 0 -82 -31q-19 -21 -27 -64l-8 -45h391l-84 -475h-131l64 365h-260l-64 -365h-131l64 365h-125l20 110h125l8 45q14 81 44 121q31 43 83 66t112 23q36 0 85 -13zM587 647q0 35 25 59t60 24t60 -24t25 -59t-25 -59t-60 -24t-60 24
t-25 59z" />
    <glyph glyph-name="f_l" unicode="fl" horiz-adv-x="739" 
d="M517 717l-38 -109q-24 7 -46 7q-54 0 -82 -31q-19 -21 -27 -64l-8 -45h260l42 235h131l-126 -710h-131l65 365h-261l-64 -365h-131l64 365h-125l20 110h125l8 45q14 81 44 121q31 43 83 66t112 23q36 0 85 -13z" />
    <glyph glyph-name=".notdef" horiz-adv-x="570" 
d="M75 0v700h420v-700h-420zM195 585v-470h180v470h-180z" />
    <glyph glyph-name=".null" horiz-adv-x="0" 
 />
    <glyph glyph-name=".null" horiz-adv-x="0" 
 />
    <glyph glyph-name="uni000D" unicode="&#xd;" horiz-adv-x="260" 
 />
    <glyph glyph-name="space" unicode=" " horiz-adv-x="260" 
 />
    <glyph glyph-name="exclam" unicode="!" horiz-adv-x="383" 
d="M207 700h131l-40 -225l-64 -245h-90l23 245zM75 75q0 37 25 61.5t62 24.5t62.5 -24.5t25.5 -61.5q0 -36 -25.5 -60.5t-62.5 -24.5t-62 24t-25 61z" />
    <glyph glyph-name="quotedbl" unicode="&#x22;" horiz-adv-x="459" 
d="M264 700l-64 -245h-90l23 245h131zM474 700l-64 -245h-90l23 245h131z" />
    <glyph glyph-name="numbersign" unicode="#" horiz-adv-x="718" 
d="M328 405l-30 -110h126l30 110h-126zM124 515h120l49 185h114l-49 -185h126l49 185h114l-49 -185h110l-20 -110h-119l-31 -110h110l-16 -110h-123l-49 -185h-114l49 185h-126l-49 -185h-114l49 185h-110l20 110h119l30 110h-110z" />
    <glyph glyph-name="dollar" unicode="$" horiz-adv-x="552" 
d="M0 106l93 85q64 -81 161 -81q43 0 78.5 25.5t35.5 68.5q0 34 -27 60.5t-65 46.5t-76 42.5t-65 61.5t-27 91q0 77 53.5 132t137.5 68l19 109h121l-20 -114q84 -21 143 -81l-89 -88q-49 58 -123 58q-42 0 -75.5 -23.5t-33.5 -61.5q0 -25 27 -47t65 -42t76 -45t65 -67.5
t27 -98.5q0 -82 -59.5 -141.5t-148.5 -70.5l-19 -108h-121l20 115q-101 23 -173 106z" />
    <glyph glyph-name="percent" unicode="%" horiz-adv-x="942" 
d="M180 518q0 -29 18.5 -48.5t47.5 -19.5q32 0 54.5 23t22.5 59q0 29 -18.5 48.5t-47.5 19.5q-32 0 -54.5 -23t-22.5 -59zM443 532q0 -82 -58 -137t-139 -55q-78 0 -132 51.5t-54 126.5q0 82 58 137t139 55q78 0 132 -51.5t54 -126.5zM654 168q0 -29 18.5 -48.5t47.5 -19.5
q32 0 54.5 23t22.5 59q0 29 -18.5 48.5t-47.5 19.5q-32 0 -54.5 -23t-22.5 -59zM917 182q0 -82 -58 -137t-139 -55q-78 0 -132 51.5t-54 126.5q0 82 58 137t139 55q78 0 132 -51.5t54 -126.5zM284 0h-120l529 700h120z" />
    <glyph glyph-name="ampersand" unicode="&#x26;" horiz-adv-x="664" 
d="M503 355q0 35 -3 59l127 15q6 -34 6 -74q0 -136 -77 -237l83 -118h-149l-26 37q-80 -47 -178 -47q-111 0 -186 63t-75 159q0 76 46 133t117 87q-34 58 -34 109q0 73 50 121t121 48q73 0 120 -47.5t47 -112.5q0 -58 -31.5 -97.5t-87.5 -74.5l103 -147q27 54 27 124z
M155 212q0 -47 38 -74.5t93 -27.5q59 0 106 28l-137 194q-100 -43 -100 -120zM362 552q0 15 -10 26.5t-27 11.5t-29 -14t-12 -33q0 -35 21 -67q57 37 57 76z" />
    <glyph glyph-name="quotesingle" unicode="'" horiz-adv-x="249" 
d="M264 700l-64 -245h-90l23 245h131z" />
    <glyph glyph-name="parenleft" unicode="(" horiz-adv-x="456" 
d="M382 710l89 -80q-92 -103 -145.5 -227.5t-53.5 -255.5q0 -159 67 -296l-100 -61q-87 160 -87 357q0 299 230 563z" />
    <glyph glyph-name="parenright" unicode=")" horiz-adv-x="456" 
d="M79 -210l-89 80q92 103 145.5 228t53.5 255q0 159 -67 296l100 61q87 -160 87 -357q0 -299 -230 -563z" />
    <glyph glyph-name="asterisk" unicode="*" horiz-adv-x="516" 
d="M91 495l38 104l128 -45l25 146h111l-25 -145l142 44l33 -105l-164 -50l67 -122l-98 -52l-62 113l-106 -113l-81 74l104 111z" />
    <glyph glyph-name="plus" unicode="+" horiz-adv-x="570" 
d="M71 335h175l32 175h111l-32 -175h175l-19 -110h-175l-31 -175h-111l31 175h-175z" />
    <glyph glyph-name="comma" unicode="," horiz-adv-x="375" 
d="M113 150h145l-155 -290h-95z" />
    <glyph glyph-name="hyphen" unicode="-" horiz-adv-x="490" 
d="M91 315h330l-19 -110h-330z" />
    <glyph glyph-name="period" unicode="." horiz-adv-x="375" 
d="M80 75q0 37 25 61.5t62 24.5t62.5 -24.5t25.5 -61.5q0 -36 -25.5 -60.5t-62.5 -24.5t-62 24t-25 61z" />
    <glyph glyph-name="slash" unicode="/" horiz-adv-x="588" 
d="M135 0h-130l448 700h130z" />
    <glyph glyph-name="zero" unicode="0" horiz-adv-x="593" 
d="M437 461q0 129 -82 129q-42 0 -74.5 -34t-50.5 -88.5t-27 -113t-9 -115.5q0 -129 82 -129q42 0 74.5 34t50.5 88.5t27 113t9 115.5zM276 -10q-100 0 -158.5 64.5t-58.5 185.5q0 55 8 113t29 123.5t53 116t85.5 84t120.5 33.5q100 0 158.5 -64.5t58.5 -185.5
q0 -55 -8 -113t-29 -123.5t-53 -116t-85.5 -84t-120.5 -33.5z" />
    <glyph glyph-name="one" unicode="1" horiz-adv-x="425" 
d="M90 476l21 124l189 100h95l-124 -700h-136l96 542z" />
    <glyph glyph-name="two" unicode="2" horiz-adv-x="552" 
d="M206 502l-121 44q23 72 83.5 118t141.5 46q90 0 153.5 -58.5t63.5 -146.5q0 -100 -105 -205l-181 -180h230l-21 -120h-440l14 80l282 282q49 49 67.5 80t18.5 63q0 34 -24 59.5t-60 25.5q-41 0 -67 -26t-35 -62z" />
    <glyph glyph-name="three" unicode="3" horiz-adv-x="566" 
d="M549 620l-166 -166q58 -31 91.5 -85.5t33.5 -120.5q0 -107 -79 -182.5t-193 -75.5q-75 0 -135 35.5t-91 95.5l112 62q16 -33 46.5 -53t67.5 -20q57 0 97 40.5t40 97.5q0 51 -34.5 84t-85.5 33q-44 0 -82 -21l14 80l154 156h-224l21 120h427z" />
    <glyph glyph-name="four" unicode="4" horiz-adv-x="622" 
d="M471 700h95l-74 -420h120l-21 -120h-120l-29 -160h-136l29 160h-325l14 80zM225 280h131l29 164z" />
    <glyph glyph-name="five" unicode="5" horiz-adv-x="572" 
d="M35 108l107 68q16 -31 45.5 -48.5t63.5 -17.5q55 0 93.5 39.5t38.5 93.5q0 48 -32.5 80t-79.5 32q-59 0 -98 -45l-78 21l116 369h346l-21 -120h-233l-34 -111q14 2 28 2q93 0 157 -68t64 -160q0 -105 -76.5 -179t-190.5 -74q-70 0 -126.5 32t-89.5 86z" />
    <glyph glyph-name="six" unicode="6" horiz-adv-x="620" 
d="M537 700l-178 -222q92 -11 154 -76t62 -159q0 -105 -77 -179t-185 -74t-180.5 68.5t-72.5 168.5q0 40 16.5 81t30 60t39.5 52l224 280h167zM318 360q-34 0 -61 -9q-20 -21 -30.5 -34t-22 -38.5t-11.5 -51.5q0 -51 35 -84t85 -33q53 0 90 39.5t37 93.5q0 53 -34.5 85
t-87.5 32z" />
    <glyph glyph-name="seven" unicode="7" horiz-adv-x="545" 
d="M104 580l21 120h470l-14 -80l-409 -620h-152l385 580h-301z" />
    <glyph glyph-name="eight" unicode="8" horiz-adv-x="587" 
d="M144 505q0 87 60 146t150 59q87 0 142.5 -55t55.5 -129q0 -94 -75 -151q62 -56 62 -141q0 -103 -71.5 -173.5t-178.5 -70.5q-99 0 -166.5 62t-67.5 149q0 69 32.5 121.5t88.5 81.5q-32 41 -32 101zM404 226q0 43 -27.5 71t-71.5 28q-47 0 -81 -34.5t-34 -81.5
q0 -43 27.5 -71t71.5 -28q47 0 81 34.5t34 81.5zM417 523q0 29 -17.5 48t-45.5 19q-31 0 -53 -23t-22 -55q0 -29 17.5 -48t45.5 -19q31 0 53 23t22 55z" />
    <glyph glyph-name="nine" unicode="9" horiz-adv-x="615" 
d="M118 0l178 222q-92 11 -154 76t-62 159q0 105 77 179t185 74t180.5 -68.5t72.5 -168.5q0 -40 -16.5 -81t-30 -60t-39.5 -52l-224 -280h-167zM337 340q34 0 61 9q20 21 30.5 34t22 38.5t11.5 51.5q0 51 -35 84t-85 33q-53 0 -90 -39.5t-37 -93.5q0 -53 34.5 -85t87.5 -32z
" />
    <glyph glyph-name="colon" unicode=":" horiz-adv-x="375" 
d="M137 399q0 37 25 61.5t62 24.5t62.5 -24.5t25.5 -61.5q0 -36 -25.5 -60.5t-62.5 -24.5t-62 24t-25 61zM80 75q0 37 25 61.5t62 24.5t62.5 -24.5t25.5 -61.5q0 -36 -25.5 -60.5t-62.5 -24.5t-62 24t-25 61z" />
    <glyph glyph-name="semicolon" unicode=";" horiz-adv-x="375" 
d="M113 150h145l-155 -290h-95zM137 399q0 37 25 61.5t62 24.5t62.5 -24.5t25.5 -61.5q0 -36 -25.5 -60.5t-62.5 -24.5t-62 24t-25 61z" />
    <glyph glyph-name="less" unicode="&#x3c;" horiz-adv-x="570" 
d="M501 155l-20 -112l-425 202l12 70l497 200l-24 -129l-285 -115z" />
    <glyph glyph-name="equal" unicode="=" horiz-adv-x="570" 
d="M89 440h461l-19 -110h-461zM52 230h461l-19 -110h-461z" />
    <glyph glyph-name="greater" unicode="&#x3e;" horiz-adv-x="570" 
d="M83 405l20 112l425 -202l-12 -70l-497 -200l24 129l285 115z" />
    <glyph glyph-name="question" unicode="?" horiz-adv-x="497" 
d="M224 529l-119 33q17 67 70 107.5t126 40.5q84 0 142.5 -52t58.5 -130q0 -46 -21 -81.5t-50.5 -56.5t-59.5 -38.5t-51 -35.5t-21 -38q0 -19 14 -40l-114 -50q-30 40 -30 90q0 38 15 68.5t37.5 48.5t49 35.5t49 30t37.5 31t15 39.5q0 25 -20.5 42t-50.5 17q-29 0 -50 -17.5
t-27 -43.5zM114 75q0 37 25 61.5t62 24.5t62.5 -24.5t25.5 -61.5q0 -36 -25.5 -60.5t-62.5 -24.5t-62 24t-25 61z" />
    <glyph glyph-name="at" unicode="@" horiz-adv-x="1000" 
d="M398 241q0 -46 30 -76t77 -30q48 0 85 32q-2 8 -2 27q0 26 7 65l14 76q-36 30 -83 30q-54 0 -91 -35.5t-37 -88.5zM80 250q0 183 126.5 311.5t310.5 128.5q109 0 206.5 -54.5t157 -149t59.5 -203.5q0 -112 -52 -180t-146 -68q-65 0 -113 48q-50 -48 -133 -48
q-84 0 -146 60t-62 146q0 60 29.5 109.5t79.5 79.5q57 35 114 35q63 0 115 -34l4 24h111l-31 -174q-12 -78 -12 -87q0 -26 12.5 -42.5t36.5 -16.5q40 0 61.5 41.5t21.5 104.5q0 124 -96.5 211.5t-223.5 87.5q-133 0 -226.5 -96.5t-93.5 -233.5t93.5 -233.5t226.5 -96.5
q116 0 198 65l62 -91q-112 -84 -253 -84q-183 0 -310 128.5t-127 311.5z" />
    <glyph glyph-name="A" unicode="A" horiz-adv-x="699" 
d="M113 0h-153l424 700h95l185 -700h-135l-41 155h-281zM403 477l-123 -202h176z" />
    <glyph glyph-name="B" unicode="B" horiz-adv-x="613" 
d="M575 516q0 -82 -62 -141q70 -59 70 -150q0 -84 -58 -148q-70 -77 -204 -77h-284l124 700h192q106 0 162 -51q60 -55 60 -133zM329 315h-100l-35 -195h119q63 0 92 21q43 31 43 84q0 36 -24 62q-26 28 -95 28zM276 580l-27 -150h67q73 0 99 23q25 22 25 59q0 30 -18 48
q-20 20 -80 20h-66z" />
    <glyph glyph-name="C" unicode="C" horiz-adv-x="717" 
d="M722 587l-93 -81q-79 84 -188 84q-104 0 -180 -76.5t-76 -183.5q0 -96 64 -158t159 -62q108 0 188 80l83 -88q-49 -53 -120.5 -82.5t-150.5 -29.5q-152 0 -255 97t-103 243q0 157 115 268.5t272 111.5q179 0 285 -123z" />
    <glyph glyph-name="D" unicode="D" horiz-adv-x="734" 
d="M319 0h-282l124 700h190q140 0 226 -56q69 -45 108 -117t39 -158q0 -89 -43.5 -169t-117.5 -132q-97 -68 -244 -68zM194 120h124q106 0 173 52q45 36 71.5 88t26.5 109q0 100 -72 162q-57 49 -166 49h-75z" />
    <glyph glyph-name="E" unicode="E" horiz-adv-x="546" 
d="M37 0l124 700h420l-21 -120h-284l-26 -145h214l-21 -120h-214l-35 -195h294l-21 -120h-430z" />
    <glyph glyph-name="F" unicode="F" horiz-adv-x="531" 
d="M37 0l124 700h420l-21 -120h-284l-26 -145h214l-21 -120h-214l-56 -315h-136z" />
    <glyph glyph-name="G" unicode="G" horiz-adv-x="754" 
d="M722 587l-93 -81q-79 84 -188 84q-104 0 -180 -76.5t-76 -183.5q0 -96 64 -158t159 -62q74 0 138 40l29 165h-182l21 120h320l-58 -332q-50 -54 -120 -83.5t-148 -29.5q-152 0 -255 97t-103 243q0 157 115 268.5t272 111.5q179 0 285 -123z" />
    <glyph glyph-name="H" unicode="H" horiz-adv-x="779" 
d="M522 0l56 315h-349l-56 -315h-136l124 700h136l-47 -265h349l47 265h136l-124 -700h-136z" />
    <glyph glyph-name="I" unicode="I" horiz-adv-x="294" 
d="M37 0l124 700h136l-124 -700h-136z" />
    <glyph glyph-name="J" unicode="J" horiz-adv-x="493" 
d="M508 700l-89 -501q-17 -95 -56 -140q-57 -69 -163 -69q-68 0 -118.5 32.5t-76.5 79.5l106 61q30 -53 89 -53q42 0 63 29q15 21 23 61l89 500h133z" />
    <glyph glyph-name="K" unicode="K" horiz-adv-x="703" 
d="M37 0l124 700h136l-49 -279l311 279h194l-378 -334l285 -366h-163l-263 344l-61 -344h-136z" />
    <glyph glyph-name="L" unicode="L" horiz-adv-x="538" 
d="M37 0l124 700h136l-103 -580h294l-21 -120h-430z" />
    <glyph glyph-name="M" unicode="M" horiz-adv-x="859" 
d="M355 115l-111 280l-71 -395h-136l124 700h95l168 -419l343 419h95l-124 -700h-136l69 386l-221 -271h-95z" />
    <glyph glyph-name="N" unicode="N" horiz-adv-x="779" 
d="M563 0l-307 470l-83 -470h-136l124 700h95l306 -470l84 470h136l-124 -700h-95z" />
    <glyph glyph-name="O" unicode="O" horiz-adv-x="800" 
d="M185 330q0 -95 62.5 -157.5t155.5 -62.5q101 0 176.5 78.5t75.5 181.5q0 95 -62.5 157.5t-155.5 62.5q-101 0 -176.5 -78.5t-75.5 -181.5zM790 370q0 -152 -113.5 -266t-273.5 -114q-152 0 -252.5 98t-100.5 242q0 152 113.5 266t273.5 114q152 0 252.5 -98t100.5 -242z
" />
    <glyph glyph-name="P" unicode="P" horiz-adv-x="600" 
d="M245 405h111q64 0 90 23q34 29 34 73q0 28 -16 49q-22 30 -94 30h-94zM362 285h-139l-50 -285h-136l124 700h216q131 0 192 -72q46 -54 46 -127q0 -51 -24.5 -96.5t-65.5 -75.5q-62 -44 -163 -44z" />
    <glyph glyph-name="Q" unicode="Q" horiz-adv-x="820" 
d="M790 370q0 -145 -103 -256l78 -114h-139l-29 42q-90 -52 -194 -52q-152 0 -252.5 98t-100.5 242q0 152 113.5 266t273.5 114q152 0 252.5 -98t100.5 -242zM398 338l94 63l118 -174q45 67 45 143q0 95 -62.5 157.5t-155.5 62.5q-101 0 -176.5 -78.5t-75.5 -181.5
q0 -95 62.5 -157.5t155.5 -62.5q66 0 124 36z" />
    <glyph glyph-name="R" unicode="R" horiz-adv-x="662" 
d="M161 700h197q97 0 150 -40q77 -57 77 -149q0 -53 -27 -97.5t-73 -70.5q-30 -17 -69 -24l221 -319h-157l-213 315h-38l-56 -315h-136zM352 580h-76l-27 -150h91q60 0 84 22q26 24 26 59q0 29 -19 48q-19 21 -79 21z" />
    <glyph glyph-name="S" unicode="S" horiz-adv-x="552" 
d="M0 106l93 85q64 -81 161 -81q43 0 78.5 25.5t35.5 68.5q0 34 -27 60.5t-65 46.5t-76 42.5t-65 61.5t-27 91q0 88 68.5 146t168.5 58q130 0 217 -90l-89 -88q-49 58 -123 58q-42 0 -75.5 -23.5t-33.5 -61.5q0 -25 27 -47t65 -42t76 -45t65 -67.5t27 -98.5
q0 -91 -72.5 -153t-174.5 -62q-153 0 -254 116z" />
    <glyph glyph-name="T" unicode="T" horiz-adv-x="564" 
d="M111 700h506l-21 -120h-185l-103 -580h-136l103 580h-185z" />
    <glyph glyph-name="U" unicode="U" horiz-adv-x="752" 
d="M285 700l-60 -337q-15 -86 -15 -115q0 -66 43.5 -102t110.5 -36q93 0 142 58q38 44 58 157l67 375h136l-69 -389q-26 -151 -88 -222q-85 -99 -246 -99q-122 0 -205.5 70t-83.5 195q0 32 24 161l50 284h136z" />
    <glyph glyph-name="V" unicode="V" horiz-adv-x="659" 
d="M241 0l-156 700h132l104 -466l269 466h149l-403 -700h-95z" />
    <glyph glyph-name="W" unicode="W" horiz-adv-x="984" 
d="M201 0l-111 700h131l70 -436l235 436h95l74 -431l219 431h145l-356 -700h-95l-74 440l-238 -440h-95z" />
    <glyph glyph-name="X" unicode="X" horiz-adv-x="689" 
d="M495 0l-131 276l-225 -276h-169l319 387l-150 313h145l100 -212l171 212h169l-266 -323l182 -377h-145z" />
    <glyph glyph-name="Y" unicode="Y" horiz-adv-x="634" 
d="M708 700l-309 -385l-56 -315h-136l56 314l-173 386h143l110 -247l196 247h169z" />
    <glyph glyph-name="Z" unicode="Z" horiz-adv-x="625" 
d="M631 620l-417 -500h352l-21 -120h-540l14 80l414 500h-295l21 120h486z" />
    <glyph glyph-name="bracketleft" unicode="[" horiz-adv-x="456" 
d="M80 -200l160 900h276l-21 -115h-155l-118 -670h155l-21 -115h-276z" />
    <glyph glyph-name="backslash" unicode="\" horiz-adv-x="326" 
d="M321 0h-113l-203 700h114z" />
    <glyph glyph-name="bracketright" unicode="]" horiz-adv-x="456" 
d="M381 700l-160 -900h-276l21 115h155l118 670h-155l21 115h276z" />
    <glyph glyph-name="asciicircum" unicode="^" horiz-adv-x="495" 
d="M282 700h90l123 -350h-117l-69 199l-140 -199h-134z" />
    <glyph glyph-name="underscore" unicode="_" horiz-adv-x="520" 
d="M-26 0h490l-19 -110h-490z" />
    <glyph glyph-name="grave" unicode="`" horiz-adv-x="350" 
d="M70 710h140l70 -160h-90z" />
    <glyph glyph-name="a" unicode="a" horiz-adv-x="611" 
d="M459 475h120l-84 -475h-119l5 32q-54 -42 -132 -42q-88 0 -150.5 63t-62.5 161q0 70 34.5 135t94.5 100q63 36 131 36q81 0 155 -55zM393 162l27 155q-45 47 -115 47q-57 0 -98 -41.5t-41 -102.5q0 -49 30 -80t81 -31q66 0 116 53z" />
    <glyph glyph-name="b" unicode="b" horiz-adv-x="608" 
d="M150 0h-120l126 710h131l-46 -258q47 33 119 33q88 0 150.5 -63t62.5 -161q0 -70 -34.5 -135t-94.5 -100q-63 -36 -131 -36q-81 0 -155 55zM216 313l-27 -155q45 -47 115 -47q57 0 98 41.5t41 102.5q0 49 -30 80t-81 31q-66 0 -116 -53z" />
    <glyph glyph-name="c" unicode="c" horiz-adv-x="520" 
d="M399 153l77 -88q-80 -75 -187 -75q-108 0 -180.5 69t-72.5 171q0 108 78 181.5t187 73.5q124 0 199 -89l-85 -79q-48 48 -110 48q-54 0 -96.5 -39t-42.5 -96q0 -50 36.5 -85t90.5 -35q57 0 106 43z" />
    <glyph glyph-name="d" unicode="d" horiz-adv-x="611" 
d="M393 162l27 155q-45 47 -115 47q-57 0 -98 -41.5t-41 -102.5q0 -49 30 -80t81 -31q66 0 116 53zM490 710h131l-126 -710h-119l5 32q-54 -42 -132 -42q-88 0 -150.5 63t-62.5 161q0 70 34.5 135t94.5 100q63 36 131 36q72 0 146 -48z" />
    <glyph glyph-name="e" unicode="e" horiz-adv-x="536" 
d="M411 132l54 -88q-75 -54 -178 -54q-106 0 -178.5 66.5t-72.5 173.5q0 103 71.5 179t177.5 76q93 0 154.5 -63t61.5 -157q0 -31 -8 -61h-337q4 -47 39 -78t93 -31q63 0 123 37zM171 296h207q-3 37 -29 60.5t-65 23.5t-69 -22.5t-44 -61.5z" />
    <glyph glyph-name="f" unicode="f" horiz-adv-x="472" 
d="M517 717l-38 -109q-24 7 -46 7q-54 0 -82 -31q-19 -21 -27 -64l-8 -45h155l-20 -110h-155l-64 -365h-131l64 365h-125l20 110h125l8 45q14 81 44 121q31 43 83 66t112 23q36 0 85 -13z" />
    <glyph glyph-name="g" unicode="g" horiz-adv-x="611" 
d="M459 475h120l-81 -459q-20 -116 -58 -168q-72 -98 -217 -98q-64 0 -125.5 27.5t-97.5 74.5l88 84q53 -66 136 -66q64 0 96 35t46 108l2 10q-47 -33 -119 -33q-88 0 -150.5 63t-62.5 161q0 70 34.5 135t94.5 100q63 36 131 36q81 0 155 -55zM393 162l27 155
q-45 47 -115 47q-57 0 -98 -41.5t-41 -102.5q0 -49 30 -80t81 -31q66 0 116 53z" />
    <glyph glyph-name="h" unicode="h" horiz-adv-x="623" 
d="M156 710h130l-47 -263q61 38 130 38q48 0 89.5 -23t68.5 -62q36 -53 36 -124q0 -37 -8 -85l-34 -191h-131l38 213q6 35 6 57q0 42 -23.5 68.5t-67.5 26.5q-68 0 -128 -60l-54 -305h-131z" />
    <glyph glyph-name="i" unicode="i" horiz-adv-x="277" 
d="M114 475h131l-84 -475h-131zM125 647q0 35 25 59t60 24t60 -24t25 -59t-25 -59t-60 -24t-60 24t-25 59z" />
    <glyph glyph-name="j" unicode="j" horiz-adv-x="319" 
d="M-95 -242l28 116q16 -4 35 -4q39 0 65 23q24 22 31 62l92 520h131l-89 -503q-16 -91 -40 -129q-56 -93 -187 -93q-37 0 -66 8zM167 647q0 35 25 59t60 24t60 -24t25 -59t-25 -59t-60 -24t-60 24t-25 59z" />
    <glyph glyph-name="k" unicode="k" horiz-adv-x="574" 
d="M584 475l-265 -218l221 -257h-163l-179 212l-37 -212h-131l126 710h131l-67 -380l172 145h192z" />
    <glyph glyph-name="l" unicode="l" horiz-adv-x="277" 
d="M30 0l126 710h131l-126 -710h-131z" />
    <glyph glyph-name="m" unicode="m" horiz-adv-x="973" 
d="M114 475h121l-7 -35q64 45 132 45q97 0 155 -79q94 79 193 79q109 0 169 -85q36 -53 36 -124q0 -37 -8 -85l-34 -191h-131l38 213q6 34 6 57q0 42 -23.5 68.5t-65.5 26.5q-71 0 -138 -71q1 -6 1 -18q0 -37 -8 -85l-34 -191h-131l38 213q6 35 6 57q0 42 -23.5 68.5
t-65.5 26.5q-65 0 -125 -60l-54 -305h-131z" />
    <glyph glyph-name="n" unicode="n" horiz-adv-x="623" 
d="M114 475h121l-7 -35q64 45 135 45q50 0 93.5 -22.5t70.5 -62.5q36 -53 36 -124q0 -37 -8 -85l-34 -191h-131l38 213q6 35 6 57q0 42 -23.5 68.5t-67.5 26.5q-68 0 -128 -60l-54 -305h-131z" />
    <glyph glyph-name="o" unicode="o" horiz-adv-x="585" 
d="M166 227q0 -50 33.5 -83.5t83.5 -33.5q56 0 96.5 41t40.5 97q0 50 -33.5 83.5t-83.5 33.5q-56 0 -96.5 -41t-40.5 -97zM550 248q0 -107 -79 -182.5t-188 -75.5q-105 0 -176 69t-71 168q0 107 79 182.5t188 75.5q105 0 176 -69t71 -168z" />
    <glyph glyph-name="p" unicode="p" horiz-adv-x="608" 
d="M216 313l-27 -155q45 -47 115 -47q57 0 98 41.5t41 102.5q0 49 -30 80t-81 31q-66 0 -116 -53zM119 -240h-131l126 715h119l-5 -32q54 42 132 42q88 0 150.5 -63t62.5 -161q0 -70 -34.5 -135t-94.5 -100q-63 -36 -131 -36q-72 0 -146 48z" />
    <glyph glyph-name="q" unicode="q" horiz-adv-x="611" 
d="M459 475h120l-127 -715h-131l47 263q-47 -33 -119 -33q-88 0 -150.5 63t-62.5 161q0 70 34.5 135t94.5 100q63 36 131 36q81 0 155 -55zM393 162l27 155q-45 47 -115 47q-57 0 -98 -41.5t-41 -102.5q0 -49 30 -80t81 -31q66 0 116 53z" />
    <glyph glyph-name="r" unicode="r" horiz-adv-x="396" 
d="M401 478l-37 -117q-15 4 -33 4q-33 0 -65.5 -20t-51.5 -45l-53 -300h-131l84 475h121l-8 -40q45 50 123 50q28 0 51 -7z" />
    <glyph glyph-name="s" unicode="s" horiz-adv-x="450" 
d="M0 55l67 93q63 -48 126 -48q28 0 50 10.5t22 30.5q0 6 -2.5 11.5t-8.5 11t-12 9.5t-16.5 9.5t-17.5 8.5t-21 9.5t-21 9.5q-96 44 -96 125q0 68 60 109t135 41q86 0 160 -44l-55 -94q-49 28 -98 28q-14 0 -28.5 -2.5t-29 -12t-14.5 -25.5q0 -14 12 -22.5t42.5 -20.5
t42.5 -18q98 -49 98 -132q0 -69 -59.5 -110.5t-143.5 -41.5q-112 0 -192 65z" />
    <glyph glyph-name="t" unicode="t" horiz-adv-x="496" 
d="M395 110l21 -110q-30 -10 -86 -10q-82 0 -136 49t-54 129q0 29 9 79l21 118h-135l20 110h135l24 135h131l-24 -135h165l-20 -110h-165l-24 -134q-7 -35 -7 -54q0 -38 18.5 -55t58.5 -17q28 0 48 5z" />
    <glyph glyph-name="u" unicode="u" horiz-adv-x="615" 
d="M499 0h-121l7 35q-64 -45 -132 -45q-103 0 -162 85q-36 53 -36 124q0 37 8 85l34 191h131l-38 -213q-6 -35 -6 -57q0 -40 25 -67.5t67 -27.5q62 0 122 60l54 305h131z" />
    <glyph glyph-name="v" unicode="v" horiz-adv-x="568" 
d="M453 475h145l-312 -475h-90l-146 475h128l87 -286z" />
    <glyph glyph-name="w" unicode="w" horiz-adv-x="849" 
d="M55 475h125l70 -274l168 274h90l68 -268l163 268h140l-286 -475h-90l-68 274l-169 -274h-90z" />
    <glyph glyph-name="x" unicode="x" horiz-adv-x="566" 
d="M363 0l-81 164l-138 -164h-169l229 255l-115 220h139l67 -135l112 135h164l-199 -224l135 -251h-144z" />
    <glyph glyph-name="y" unicode="y" horiz-adv-x="575" 
d="M458 475h147l-458 -715h-147l185 288l-140 427h133l94 -294z" />
    <glyph glyph-name="z" unicode="z" horiz-adv-x="523" 
d="M503 475l-14 -80l-277 -285h237l-19 -110h-430l14 80l272 285h-202l20 110h399z" />
    <glyph glyph-name="braceleft" unicode="{" horiz-adv-x="456" 
d="M324 -84l-19 -115q-19 -1 -37 -1q-79 0 -122.5 37t-43.5 109q0 35 20 102t20 100q0 62 -82 62l16 80q97 0 109 70q5 31 7 83t6 82q11 95 69 135t142 40q39 0 54 -2l-21 -114q-10 1 -31 1q-82 0 -94 -70q-6 -31 -9 -77.5t-6 -67.5q-8 -64 -29.5 -92t-58.5 -40
q44 -25 44 -79q0 -37 -18.5 -102.5t-18.5 -85.5q0 -56 66 -56q18 0 37 1z" />
    <glyph glyph-name="bar" unicode="|" horiz-adv-x="278" 
d="M0 -200l160 900h121l-160 -900h-121z" />
    <glyph glyph-name="braceright" unicode="}" horiz-adv-x="456" 
d="M174 585q-18 0 -37 -1l19 115q19 1 37 1q79 0 122.5 -37t43.5 -109q0 -35 -20 -102t-20 -100q0 -62 82 -62l-16 -80q-97 0 -109 -70q-5 -31 -7 -83t-6 -82q-11 -95 -69 -135t-142 -40q-39 0 -54 2l21 114q10 -1 31 -1q82 0 94 70q6 31 9 77.5t6 67.5q8 64 29.5 92
t58.5 40q-44 25 -44 79q0 37 18.5 102.5t18.5 85.5q0 56 -66 56z" />
    <glyph glyph-name="asciitilde" unicode="~" horiz-adv-x="570" 
d="M474 370l98 -48q-19 -63 -65 -101t-113 -38q-43 0 -82.5 21t-69 42t-50.5 21q-27 0 -43.5 -19.5t-33.5 -57.5l-98 48q19 63 65 101t113 38q43 0 82.5 -21t69 -42t50.5 -21q27 0 43.5 19.5t33.5 57.5z" />
    <glyph glyph-name="uni00A0" unicode="&#xa0;" horiz-adv-x="260" 
 />
    <glyph glyph-name="exclamdown" unicode="&#xa1;" horiz-adv-x="383" 
d="M171 -240h-131l40 225l64 245h90l-23 -245zM130 399q0 37 25 61.5t62 24.5t62.5 -24.5t25.5 -61.5q0 -36 -25.5 -60.5t-62.5 -24.5t-62 24t-25 61z" />
    <glyph glyph-name="cent" unicode="&#xa2;" horiz-adv-x="520" 
d="M399 153l77 -88q-74 -69 -169 -74l-19 -106h-121l22 123q-70 27 -111.5 86.5t-41.5 135.5q0 96 63.5 166.5t157.5 84.5l21 109h121l-21 -116q72 -21 122 -78l-85 -79q-48 48 -110 48q-54 0 -96.5 -39t-42.5 -96q0 -50 36.5 -85t90.5 -35q57 0 106 43z" />
    <glyph glyph-name="sterling" unicode="&#xa3;" horiz-adv-x="553" 
d="M288 405h134l-19 -110h-99v-9q0 -95 -58 -166h265l-21 -120h-500l14 80q162 46 170 215h-111l19 110h73q-12 45 -12 79q0 103 66.5 164.5t159.5 61.5q58 0 110 -27.5t84 -77.5l-98 -70q-33 55 -94 55q-39 0 -68.5 -28.5t-29.5 -73.5q0 -21 15 -83z" />
    <glyph glyph-name="currency" unicode="&#xa4;" horiz-adv-x="610" 
d="M94 351q0 54 26 100l-80 80l85 85l80 -80q46 26 100 26q55 0 101 -26l79 80l85 -85l-79 -80q25 -47 25 -100q0 -54 -25 -101l79 -79l-85 -85l-79 79q-47 -25 -101 -25q-53 0 -100 25l-80 -79l-85 85l80 79q-26 46 -26 101zM224 351q0 -34 23.5 -57.5t57.5 -23.5
t57.5 23.5t23.5 57.5t-23.5 57.5t-57.5 23.5t-57.5 -23.5t-23.5 -57.5z" />
    <glyph glyph-name="yen" unicode="&#xa5;" horiz-adv-x="634" 
d="M708 700l-173 -215h86l-19 -110h-155l-40 -50h186l-20 -110h-192l-38 -215h-136l38 215h-193l20 110h186l-23 50h-154l20 110h85l-96 215h143l110 -247l196 247h169z" />
    <glyph glyph-name="brokenbar" unicode="&#xa6;" horiz-adv-x="321" 
d="M232 310h-121l69 390h121zM90 190h121l-70 -390h-121z" />
    <glyph glyph-name="section" unicode="&#xa7;" horiz-adv-x="585" 
d="M399 208q0 24 -17.5 44t-37 31t-57.5 30t-57 31q-49 -27 -49 -72q0 -24 17 -44.5t36.5 -31.5t57.5 -30t57 -30q50 25 50 72zM321 -25q0 28 -28.5 50.5t-68.5 41t-80.5 41.5t-69 64t-28.5 97q0 104 94 166q-14 31 -14 71q0 88 68.5 146t168.5 58q130 0 217 -90l-89 -88
q-49 58 -123 58q-42 0 -75.5 -23.5t-33.5 -61.5q0 -28 28.5 -50.5t68.5 -41t80.5 -41.5t69 -64t28.5 -97q0 -103 -94 -166q14 -31 14 -71q0 -88 -68.5 -146t-168.5 -58q-130 0 -217 90l89 88q49 -58 123 -58q42 0 75.5 23.5t33.5 61.5z" />
    <glyph glyph-name="dieresis" unicode="&#xa8;" horiz-adv-x="510" 
d="M70 632q0 33 23.5 55.5t56.5 22.5t56.5 -22.5t23.5 -55.5t-23.5 -55.5t-56.5 -22.5t-56.5 22.5t-23.5 55.5zM280 632q0 33 23.5 55.5t56.5 22.5t56.5 -22.5t23.5 -55.5t-23.5 -55.5t-56.5 -22.5t-56.5 22.5t-23.5 55.5z" />
    <glyph glyph-name="copyright" unicode="&#xa9;" horiz-adv-x="840" 
d="M90 350q0 145 102.5 247.5t247.5 102.5t247.5 -102.5t102.5 -247.5t-102.5 -247.5t-247.5 -102.5t-247.5 102.5t-102.5 247.5zM160 350q0 -116 82 -198t198 -82t198 82t82 198t-82 198t-198 82t-198 -82t-82 -198zM539 266l51 -61q-22 -23 -59.5 -39t-76.5 -16
q-88 0 -148 57.5t-60 142.5q0 86 58.5 143.5t144.5 57.5q78 0 126 -46l-49 -59q-35 25 -76 25q-49 0 -83 -35.5t-34 -85.5t35 -85t85 -35t86 36z" />
    <glyph glyph-name="ordfeminine" unicode="&#xaa;" horiz-adv-x="426" 
d="M269 620q-32 0 -53 -22.5t-21 -56.5q0 -27 17 -44t43 -17q33 0 55 25l16 90q-21 25 -57 25zM307 400l3 16q-26 -26 -73 -26q-58 0 -100 45t-42 106q0 70 47.5 119.5t120.5 49.5q56 0 92 -34l5 24h85l-53 -300h-85z" />
    <glyph glyph-name="guillemotleft" unicode="&#xab;" horiz-adv-x="655" 
d="M279 57h-130l-94 155l12 70l133 155h147l-176 -204zM549 57h-130l-94 155l12 70l133 155h147l-176 -204z" />
    <glyph glyph-name="logicalnot" unicode="&#xac;" horiz-adv-x="570" 
d="M494 120h-111l37 210h-350l19 110h461z" />
    <glyph glyph-name="uni00AD" unicode="&#xad;" horiz-adv-x="490" 
d="M91 315h330l-19 -110h-330z" />
    <glyph glyph-name="registered" unicode="&#xae;" horiz-adv-x="840" 
d="M90 350q0 145 102.5 247.5t247.5 102.5t247.5 -102.5t102.5 -247.5t-102.5 -247.5t-247.5 -102.5t-247.5 102.5t-102.5 247.5zM415 321h-23v-162h-87v383h136q63 0 96 -30q38 -33 38 -86q0 -59 -49 -88q-8 -6 -24 -11l115 -168h-95zM392 392h52q27 0 37 13q7 9 7 21
q0 13 -7 22q-12 14 -37 14h-52v-70zM160 350q0 -116 82 -198t198 -82t198 82t82 198t-82 198t-198 82t-198 -82t-82 -198z" />
    <glyph glyph-name="macron" unicode="&#xaf;" horiz-adv-x="460" 
d="M70 680h320v-100h-320v100z" />
    <glyph glyph-name="degree" unicode="&#xb0;" horiz-adv-x="430" 
d="M90 540q0 70 50 120t120 50t120 -50t50 -120t-50 -120t-120 -50t-120 50t-50 120zM190 540q0 -29 20.5 -49.5t49.5 -20.5t49.5 20.5t20.5 49.5t-20.5 49.5t-49.5 20.5t-49.5 -20.5t-20.5 -49.5z" />
    <glyph glyph-name="plusminus" unicode="&#xb1;" horiz-adv-x="570" 
d="M350 294l-23 -126h-111l23 126h-175l19 110h175l23 126h111l-23 -126h175l-19 -110h-175zM35 140h461l-19 -110h-461z" />
    <glyph glyph-name="twosuperior" unicode="&#xb2;" horiz-adv-x="318" 
d="M174 587l-86 27q14 47 49 71.5t80 24.5q54 0 92.5 -34t38.5 -85q0 -58 -69 -122l-42 -39h98l-16 -90h-264l9 51l147 140q37 35 37 59q0 12 -9.5 21t-22.5 9q-30 0 -42 -33z" />
    <glyph glyph-name="threesuperior" unicode="&#xb3;" horiz-adv-x="295" 
d="M316 461q0 -56 -40 -93.5t-107 -37.5q-77 0 -119 58l69 52q18 -25 48 -25q21 0 35 13t14 33q0 18 -13 30t-35 12q-18 0 -39 -8l10 52l60 68h-108l15 85h224l-9 -50l-70 -86q65 -29 65 -103z" />
    <glyph glyph-name="acute" unicode="&#xb4;" horiz-adv-x="350" 
d="M140 710h140l-120 -160h-90z" />
    <glyph glyph-name="mu" unicode="&#xb5;" horiz-adv-x="632" 
d="M-12 -235l126 710h131l-38 -213q-6 -35 -6 -57q0 -40 25 -67.5t67 -27.5q62 0 122 60l54 305h131l-84 -475h-121l7 35q-65 -45 -128 -45q-59 0 -109 34l-46 -259h-131z" />
    <glyph glyph-name="paragraph" unicode="&#xb6;" horiz-adv-x="725" 
d="M365 700h406l-19 -110h-100l-141 -790h-121l141 790h-99l-141 -790h-121l84 470q-79 6 -130.5 62.5t-51.5 136.5q0 77 47.5 136.5t121.5 80.5q51 14 124 14zM273 380l38 210q-49 0 -84 -35.5t-35 -85.5q0 -41 21.5 -65t59.5 -24z" />
    <glyph glyph-name="periodcentered" unicode="&#xb7;" horiz-adv-x="375" 
d="M95 238q0 37 25 61.5t62 24.5t62.5 -24.5t25.5 -61.5q0 -36 -25.5 -60.5t-62.5 -24.5t-62 24t-25 61z" />
    <glyph glyph-name="cedilla" unicode="&#xb8;" horiz-adv-x="300" 
d="M70 -150l65 160h95l-30 -160h-130z" />
    <glyph glyph-name="onesuperior" unicode="&#xb9;" horiz-adv-x="260" 
d="M85 541l16 95l134 64h60l-63 -360h-101l42 241z" />
    <glyph glyph-name="ordmasculine" unicode="&#xba;" horiz-adv-x="416" 
d="M195 541q0 -25 16 -43t42 -18q32 0 53 22.5t21 56.5q0 25 -16 43t-42 18q-32 0 -53 -22.5t-21 -56.5zM95 541q0 71 49 120t125 49q67 0 112.5 -44t45.5 -107q0 -71 -49 -120t-125 -49q-67 0 -112.5 44t-45.5 107z" />
    <glyph glyph-name="guillemotright" unicode="&#xbb;" horiz-adv-x="655" 
d="M378 437h130l94 -155l-12 -70l-133 -155h-147l176 204zM108 437h130l94 -155l-12 -70l-133 -155h-147l176 204z" />
    <glyph glyph-name="onequarter" unicode="&#xbc;" horiz-adv-x="718" 
d="M353 120l247 240h60l-37 -215h65l-13 -75h-66l-12 -70h-91l12 70h-174zM484 145h48l10 60zM165 0h-120l529 700h120zM85 541l16 95l134 64h60l-63 -360h-101l42 241z" />
    <glyph glyph-name="onehalf" unicode="&#xbd;" horiz-adv-x="737" 
d="M165 0h-120l529 700h120zM85 541l16 95l134 64h60l-63 -360h-101l42 241zM533 247l-86 27q14 47 49 71.5t80 24.5q54 0 92.5 -34t38.5 -85q0 -58 -69 -122l-42 -39h98l-16 -90h-264l9 51l147 140q37 35 37 59q0 12 -9.5 21t-22.5 9q-30 0 -42 -33z" />
    <glyph glyph-name="threequarters" unicode="&#xbe;" horiz-adv-x="738" 
d="M316 461q0 -56 -40 -93.5t-107 -37.5q-77 0 -119 58l69 52q18 -25 48 -25q21 0 35 13t14 33q0 18 -13 30t-35 12q-18 0 -39 -8l10 52l60 68h-108l15 85h224l-9 -50l-70 -86q65 -29 65 -103zM373 120l247 240h60l-37 -215h65l-13 -75h-66l-12 -70h-91l12 70h-174zM504 145
h48l10 60zM185 0h-120l529 700h120z" />
    <glyph glyph-name="questiondown" unicode="&#xbf;" horiz-adv-x="497" 
d="M273 -69l119 -33q-17 -67 -70 -107.5t-126 -40.5q-84 0 -142.5 52t-58.5 130q0 46 21 81.5t50.5 56.5t59.5 38.5t51 35.5t21 38q0 19 -14 40l114 50q30 -40 30 -90q0 -38 -15 -68.5t-37.5 -48.5t-49 -35.5t-49 -30t-37.5 -31t-15 -39.5q0 -25 20.5 -42t50.5 -17
q29 0 50 17.5t27 43.5zM212 399q0 37 25 61.5t62 24.5t62.5 -24.5t25.5 -61.5q0 -36 -25.5 -60.5t-62.5 -24.5t-62 24t-25 61z" />
    <glyph glyph-name="Agrave" unicode="&#xc0;" horiz-adv-x="699" 
d="M279 920h140l70 -160h-90zM113 0h-153l424 700h95l185 -700h-135l-41 155h-281zM403 477l-123 -202h176z" />
    <glyph glyph-name="Aacute" unicode="&#xc1;" horiz-adv-x="699" 
d="M464 920h140l-120 -160h-90zM113 0h-153l424 700h95l185 -700h-135l-41 155h-281zM403 477l-123 -202h176z" />
    <glyph glyph-name="Acircumflex" unicode="&#xc2;" horiz-adv-x="699" 
d="M537 920l70 -160h-85l-65 90l-95 -90h-95l130 160h140zM113 0h-153l424 700h95l185 -700h-135l-41 155h-281zM403 477l-123 -202h176z" />
    <glyph glyph-name="Atilde" unicode="&#xc3;" horiz-adv-x="699" 
d="M113 0h-153l424 700h95l185 -700h-135l-41 155h-281zM403 477l-123 -202h176zM557 920l80 -16q0 -57 -29.5 -95.5t-81.5 -38.5q-32 0 -81 25t-68 25q-35 0 -40 -50l-80 16q0 57 29.5 95.5t81.5 38.5q32 0 81 -25t68 -25q35 0 40 50z" />
    <glyph glyph-name="Adieresis" unicode="&#xc4;" horiz-adv-x="699" 
d="M272 842q0 33 23.5 55.5t56.5 22.5t56.5 -22.5t23.5 -55.5t-23.5 -55.5t-56.5 -22.5t-56.5 22.5t-23.5 55.5zM482 842q0 33 23.5 55.5t56.5 22.5t56.5 -22.5t23.5 -55.5t-23.5 -55.5t-56.5 -22.5t-56.5 22.5t-23.5 55.5zM113 0h-153l424 700h95l185 -700h-135l-41 155
h-281zM403 477l-123 -202h176z" />
    <glyph glyph-name="Aring" unicode="&#xc5;" horiz-adv-x="699" 
d="M349 850q0 46 32 78t78 32t78 -32t32 -78t-32 -78t-78 -32t-78 32t-32 78zM429 850q0 -13 8.5 -21.5t21.5 -8.5t21.5 8.5t8.5 21.5t-8.5 21.5t-21.5 8.5t-21.5 -8.5t-8.5 -21.5zM113 0h-153l424 700h95l185 -700h-135l-41 155h-281zM403 477l-123 -202h176z" />
    <glyph glyph-name="AE" unicode="&#xc6;" horiz-adv-x="969" 
d="M126 0h-166l544 700h500l-21 -120h-284l-26 -145h214l-21 -120h-214l-35 -195h294l-21 -120h-430l27 155h-241zM339 275h169l50 279z" />
    <glyph glyph-name="Ccedilla" unicode="&#xc7;" horiz-adv-x="717" 
d="M264 -150l60 149q-121 25 -197.5 116t-76.5 215q0 157 115 268.5t272 111.5q179 0 285 -123l-93 -81q-79 84 -188 84q-104 0 -180 -76.5t-76 -183.5q0 -96 64 -158t159 -62q108 0 188 80l83 -88q-101 -107 -259 -112l-26 -140h-130z" />
    <glyph glyph-name="Egrave" unicode="&#xc8;" horiz-adv-x="546" 
d="M37 0l124 700h420l-21 -120h-284l-26 -145h214l-21 -120h-214l-35 -195h294l-21 -120h-430zM222 920h140l70 -160h-90z" />
    <glyph glyph-name="Eacute" unicode="&#xc9;" horiz-adv-x="546" 
d="M37 0l124 700h420l-21 -120h-284l-26 -145h214l-21 -120h-214l-35 -195h294l-21 -120h-430zM401 920h140l-120 -160h-90z" />
    <glyph glyph-name="Ecircumflex" unicode="&#xca;" horiz-adv-x="546" 
d="M37 0l124 700h420l-21 -120h-284l-26 -145h214l-21 -120h-214l-35 -195h294l-21 -120h-430zM484 920l70 -160h-85l-65 90l-95 -90h-95l130 160h140z" />
    <glyph glyph-name="Edieresis" unicode="&#xcb;" horiz-adv-x="546" 
d="M37 0l124 700h420l-21 -120h-284l-26 -145h214l-21 -120h-214l-35 -195h294l-21 -120h-430zM201 842q0 33 23.5 55.5t56.5 22.5t56.5 -22.5t23.5 -55.5t-23.5 -55.5t-56.5 -22.5t-56.5 22.5t-23.5 55.5zM411 842q0 33 23.5 55.5t56.5 22.5t56.5 -22.5t23.5 -55.5
t-23.5 -55.5t-56.5 -22.5t-56.5 22.5t-23.5 55.5z" />
    <glyph glyph-name="Igrave" unicode="&#xcc;" horiz-adv-x="294" 
d="M37 0l124 700h136l-124 -700h-136zM87 920h140l70 -160h-90z" />
    <glyph glyph-name="Iacute" unicode="&#xcd;" horiz-adv-x="294" 
d="M37 0l124 700h136l-124 -700h-136zM252 920h140l-120 -160h-90z" />
    <glyph glyph-name="Icircumflex" unicode="&#xce;" horiz-adv-x="294" 
d="M37 0l124 700h136l-124 -700h-136zM339 920l70 -160h-85l-65 90l-95 -90h-95l130 160h140z" />
    <glyph glyph-name="Idieresis" unicode="&#xcf;" horiz-adv-x="294" 
d="M37 0l124 700h136l-124 -700h-136zM59 842q0 33 23.5 55.5t56.5 22.5t56.5 -22.5t23.5 -55.5t-23.5 -55.5t-56.5 -22.5t-56.5 22.5t-23.5 55.5zM269 842q0 33 23.5 55.5t56.5 22.5t56.5 -22.5t23.5 -55.5t-23.5 -55.5t-56.5 -22.5t-56.5 22.5t-23.5 55.5z" />
    <glyph glyph-name="Eth" unicode="&#xd0;" horiz-adv-x="751" 
d="M336 0h-282l56 315h-100l21 120h100l47 265h190q140 0 226 -56q69 -45 108 -117t39 -158q0 -89 -43.5 -169t-117.5 -132q-97 -68 -244 -68zM211 120h124q106 0 173 52q45 36 71.5 88t26.5 109q0 100 -72 162q-57 49 -166 49h-75l-26 -145h200l-21 -120h-200z" />
    <glyph glyph-name="Ntilde" unicode="&#xd1;" horiz-adv-x="779" 
d="M563 0l-307 470l-83 -470h-136l124 700h95l306 -470l84 470h136l-124 -700h-95zM587 920l80 -16q0 -57 -29.5 -95.5t-81.5 -38.5q-32 0 -81 25t-68 25q-35 0 -40 -50l-80 16q0 57 29.5 95.5t81.5 38.5q32 0 81 -25t68 -25q35 0 40 50z" />
    <glyph glyph-name="Ograve" unicode="&#xd2;" horiz-adv-x="800" 
d="M185 330q0 -95 62.5 -157.5t155.5 -62.5q101 0 176.5 78.5t75.5 181.5q0 95 -62.5 157.5t-155.5 62.5q-101 0 -176.5 -78.5t-75.5 -181.5zM790 370q0 -152 -113.5 -266t-273.5 -114q-152 0 -252.5 98t-100.5 242q0 152 113.5 266t273.5 114q152 0 252.5 -98t100.5 -242z
M292 920h140l70 -160h-90z" />
    <glyph glyph-name="Oacute" unicode="&#xd3;" horiz-adv-x="800" 
d="M185 330q0 -95 62.5 -157.5t155.5 -62.5q101 0 176.5 78.5t75.5 181.5q0 95 -62.5 157.5t-155.5 62.5q-101 0 -176.5 -78.5t-75.5 -181.5zM790 370q0 -152 -113.5 -266t-273.5 -114q-152 0 -252.5 98t-100.5 242q0 152 113.5 266t273.5 114q152 0 252.5 -98t100.5 -242z
M481 920h140l-120 -160h-90z" />
    <glyph glyph-name="Ocircumflex" unicode="&#xd4;" horiz-adv-x="800" 
d="M185 330q0 -95 62.5 -157.5t155.5 -62.5q101 0 176.5 78.5t75.5 181.5q0 95 -62.5 157.5t-155.5 62.5q-101 0 -176.5 -78.5t-75.5 -181.5zM790 370q0 -152 -113.5 -266t-273.5 -114q-152 0 -252.5 98t-100.5 242q0 152 113.5 266t273.5 114q152 0 252.5 -98t100.5 -242z
M569 920l70 -160h-85l-65 90l-95 -90h-95l130 160h140z" />
    <glyph glyph-name="Otilde" unicode="&#xd5;" horiz-adv-x="800" 
d="M185 330q0 -95 62.5 -157.5t155.5 -62.5q101 0 176.5 78.5t75.5 181.5q0 95 -62.5 157.5t-155.5 62.5q-101 0 -176.5 -78.5t-75.5 -181.5zM790 370q0 -152 -113.5 -266t-273.5 -114q-152 0 -252.5 98t-100.5 242q0 152 113.5 266t273.5 114q152 0 252.5 -98t100.5 -242z
M582 920l80 -16q0 -57 -29.5 -95.5t-81.5 -38.5q-32 0 -81 25t-68 25q-35 0 -40 -50l-80 16q0 57 29.5 95.5t81.5 38.5q32 0 81 -25t68 -25q35 0 40 50z" />
    <glyph glyph-name="Odieresis" unicode="&#xd6;" horiz-adv-x="800" 
d="M185 330q0 -95 62.5 -157.5t155.5 -62.5q101 0 176.5 78.5t75.5 181.5q0 95 -62.5 157.5t-155.5 62.5q-101 0 -176.5 -78.5t-75.5 -181.5zM790 370q0 -152 -113.5 -266t-273.5 -114q-152 0 -252.5 98t-100.5 242q0 152 113.5 266t273.5 114q152 0 252.5 -98t100.5 -242z
M277 842q0 33 23.5 55.5t56.5 22.5t56.5 -22.5t23.5 -55.5t-23.5 -55.5t-56.5 -22.5t-56.5 22.5t-23.5 55.5zM487 842q0 33 23.5 55.5t56.5 22.5t56.5 -22.5t23.5 -55.5t-23.5 -55.5t-56.5 -22.5t-56.5 22.5t-23.5 55.5z" />
    <glyph glyph-name="multiply" unicode="&#xd7;" horiz-adv-x="534" 
d="M163 496l116 -138l165 138l71 -85l-164 -138l116 -138l-84 -71l-117 138l-164 -138l-71 85l164 138l-116 138z" />
    <glyph glyph-name="Oslash" unicode="&#xd8;" horiz-adv-x="800" 
d="M176 -10h-163l113 124q-76 93 -76 216q0 152 113.5 266t273.5 114q99 0 184 -48l45 48h163l-115 -125q76 -93 76 -215q0 -152 -113.5 -266t-273.5 -114q-101 0 -184 47zM185 330q0 -65 30 -117l320 355q-46 22 -98 22q-101 0 -176.5 -78.5t-75.5 -181.5zM655 370
q0 65 -31 116l-319 -355q43 -21 98 -21q101 0 176.5 78.5t75.5 181.5z" />
    <glyph glyph-name="Ugrave" unicode="&#xd9;" horiz-adv-x="752" 
d="M285 700l-60 -337q-15 -86 -15 -115q0 -66 43.5 -102t110.5 -36q93 0 142 58q38 44 58 157l67 375h136l-69 -389q-26 -151 -88 -222q-85 -99 -246 -99q-122 0 -205.5 70t-83.5 195q0 32 24 161l50 284h136zM296 920h140l70 -160h-90z" />
    <glyph glyph-name="Uacute" unicode="&#xda;" horiz-adv-x="752" 
d="M285 700l-60 -337q-15 -86 -15 -115q0 -66 43.5 -102t110.5 -36q93 0 142 58q38 44 58 157l67 375h136l-69 -389q-26 -151 -88 -222q-85 -99 -246 -99q-122 0 -205.5 70t-83.5 195q0 32 24 161l50 284h136zM482 920h140l-120 -160h-90z" />
    <glyph glyph-name="Ucircumflex" unicode="&#xdb;" horiz-adv-x="752" 
d="M285 700l-60 -337q-15 -86 -15 -115q0 -66 43.5 -102t110.5 -36q93 0 142 58q38 44 58 157l67 375h136l-69 -389q-26 -151 -88 -222q-85 -99 -246 -99q-122 0 -205.5 70t-83.5 195q0 32 24 161l50 284h136zM562 920l70 -160h-85l-65 90l-95 -90h-95l130 160h140z" />
    <glyph glyph-name="Udieresis" unicode="&#xdc;" horiz-adv-x="752" 
d="M285 700l-60 -337q-15 -86 -15 -115q0 -66 43.5 -102t110.5 -36q93 0 142 58q38 44 58 157l67 375h136l-69 -389q-26 -151 -88 -222q-85 -99 -246 -99q-122 0 -205.5 70t-83.5 195q0 32 24 161l50 284h136zM283 842q0 33 23.5 55.5t56.5 22.5t56.5 -22.5t23.5 -55.5
t-23.5 -55.5t-56.5 -22.5t-56.5 22.5t-23.5 55.5zM493 842q0 33 23.5 55.5t56.5 22.5t56.5 -22.5t23.5 -55.5t-23.5 -55.5t-56.5 -22.5t-56.5 22.5t-23.5 55.5z" />
    <glyph glyph-name="Yacute" unicode="&#xdd;" horiz-adv-x="634" 
d="M708 700l-309 -385l-56 -315h-136l56 314l-173 386h143l110 -247l196 247h169zM418 920h140l-120 -160h-90z" />
    <glyph glyph-name="Thorn" unicode="&#xde;" horiz-adv-x="600" 
d="M37 0l124 700h136l-25 -140h80q131 0 192 -72q46 -54 46 -127q0 -51 -24.5 -96.5t-65.5 -75.5q-62 -44 -163 -44h-139l-25 -145h-136zM345 440h-94l-31 -175h111q64 0 90 23q34 29 34 73q0 28 -16 49q-22 30 -94 30z" />
    <glyph glyph-name="germandbls" unicode="&#xdf;" horiz-adv-x="603" 
d="M324 110q48 0 81 34t33 81q0 48 -36 76q-27 21 -81 21h-28l22 120h20q38 0 62.5 25.5t24.5 63.5q0 35 -22 57t-56 22q-35 0 -61 -24q-23 -21 -32 -76l-90 -510h-131l94 529q11 64 35 102t63 64q52 35 122 35q90 0 149 -58t59 -141q0 -91 -65 -143q81 -63 81 -163
q0 -98 -71.5 -166.5t-170.5 -68.5q-71 0 -126 37l64 100q26 -17 60 -17z" />
    <glyph glyph-name="agrave" unicode="&#xe0;" horiz-adv-x="611" 
d="M200 710h140l70 -160h-90zM459 475h120l-84 -475h-119l5 32q-54 -42 -132 -42q-88 0 -150.5 63t-62.5 161q0 70 34.5 135t94.5 100q63 36 131 36q81 0 155 -55zM393 162l27 155q-45 47 -115 47q-57 0 -98 -41.5t-41 -102.5q0 -49 30 -80t81 -31q66 0 116 53z" />
    <glyph glyph-name="aacute" unicode="&#xe1;" horiz-adv-x="611" 
d="M360 710h140l-120 -160h-90zM459 475h120l-84 -475h-119l5 32q-54 -42 -132 -42q-88 0 -150.5 63t-62.5 161q0 70 34.5 135t94.5 100q63 36 131 36q81 0 155 -55zM393 162l27 155q-45 47 -115 47q-57 0 -98 -41.5t-41 -102.5q0 -49 30 -80t81 -31q66 0 116 53z" />
    <glyph glyph-name="acircumflex" unicode="&#xe2;" horiz-adv-x="611" 
d="M460 710l70 -160h-85l-65 90l-95 -90h-95l130 160h140zM459 475h120l-84 -475h-119l5 32q-54 -42 -132 -42q-88 0 -150.5 63t-62.5 161q0 70 34.5 135t94.5 100q63 36 131 36q81 0 155 -55zM393 162l27 155q-45 47 -115 47q-57 0 -98 -41.5t-41 -102.5q0 -49 30 -80
t81 -31q66 0 116 53z" />
    <glyph glyph-name="atilde" unicode="&#xe3;" horiz-adv-x="611" 
d="M459 475h120l-84 -475h-119l5 32q-54 -42 -132 -42q-88 0 -150.5 63t-62.5 161q0 70 34.5 135t94.5 100q63 36 131 36q81 0 155 -55zM393 162l27 155q-45 47 -115 47q-57 0 -98 -41.5t-41 -102.5q0 -49 30 -80t81 -31q66 0 116 53zM460 710l80 -16q0 -57 -29.5 -95.5
t-81.5 -38.5q-32 0 -81 25t-68 25q-35 0 -40 -50l-80 16q0 57 29.5 95.5t81.5 38.5q32 0 81 -25t68 -25q35 0 40 50z" />
    <glyph glyph-name="adieresis" unicode="&#xe4;" horiz-adv-x="611" 
d="M160 632q0 33 23.5 55.5t56.5 22.5t56.5 -22.5t23.5 -55.5t-23.5 -55.5t-56.5 -22.5t-56.5 22.5t-23.5 55.5zM370 632q0 33 23.5 55.5t56.5 22.5t56.5 -22.5t23.5 -55.5t-23.5 -55.5t-56.5 -22.5t-56.5 22.5t-23.5 55.5zM459 475h120l-84 -475h-119l5 32
q-54 -42 -132 -42q-88 0 -150.5 63t-62.5 161q0 70 34.5 135t94.5 100q63 36 131 36q81 0 155 -55zM393 162l27 155q-45 47 -115 47q-57 0 -98 -41.5t-41 -102.5q0 -49 30 -80t81 -31q66 0 116 53z" />
    <glyph glyph-name="aring" unicode="&#xe5;" horiz-adv-x="611" 
d="M250 640q0 46 32 78t78 32t78 -32t32 -78t-32 -78t-78 -32t-78 32t-32 78zM330 640q0 -13 8.5 -21.5t21.5 -8.5t21.5 8.5t8.5 21.5t-8.5 21.5t-21.5 8.5t-21.5 -8.5t-8.5 -21.5zM459 475h120l-84 -475h-119l5 32q-54 -42 -132 -42q-88 0 -150.5 63t-62.5 161
q0 70 34.5 135t94.5 100q63 36 131 36q81 0 155 -55zM393 162l27 155q-45 47 -115 47q-57 0 -98 -41.5t-41 -102.5q0 -49 30 -80t81 -31q66 0 116 53z" />
    <glyph glyph-name="ae" unicode="&#xe6;" horiz-adv-x="921" 
d="M796 132l54 -88q-76 -54 -177 -54q-102 0 -178 69l-10 -59h-109l5 32q-54 -42 -132 -42q-88 0 -150.5 63t-62.5 161q0 70 34.5 135t94.5 100q63 36 131 36q81 0 155 -55l8 45h110l-4 -21q48 31 107 31q86 0 150 -64t64 -156q0 -31 -8 -61h-345q4 -47 41 -78t95 -31
q67 0 127 37zM393 162l27 155q-45 47 -115 47q-57 0 -98 -41.5t-41 -102.5q0 -49 30 -80t81 -31q66 0 116 53zM548 296h215q-3 37 -31 60.5t-67 23.5t-71 -22.5t-46 -61.5z" />
    <glyph glyph-name="ccedilla" unicode="&#xe7;" horiz-adv-x="520" 
d="M399 153l77 -88q-76 -71 -173 -75l-26 -140h-130l61 151q-78 23 -125 85.5t-47 143.5q0 108 78 181.5t187 73.5q124 0 199 -89l-85 -79q-48 48 -110 48q-54 0 -96.5 -39t-42.5 -96q0 -50 36.5 -85t90.5 -35q57 0 106 43z" />
    <glyph glyph-name="egrave" unicode="&#xe8;" horiz-adv-x="536" 
d="M135 710h140l70 -160h-90zM411 132l54 -88q-75 -54 -178 -54q-106 0 -178.5 66.5t-72.5 173.5q0 103 71.5 179t177.5 76q93 0 154.5 -63t61.5 -157q0 -31 -8 -61h-337q4 -47 39 -78t93 -31q63 0 123 37zM171 296h207q-3 37 -29 60.5t-65 23.5t-69 -22.5t-44 -61.5z" />
    <glyph glyph-name="eacute" unicode="&#xe9;" horiz-adv-x="536" 
d="M320 710h140l-120 -160h-90zM411 132l54 -88q-75 -54 -178 -54q-106 0 -178.5 66.5t-72.5 173.5q0 103 71.5 179t177.5 76q93 0 154.5 -63t61.5 -157q0 -31 -8 -61h-337q4 -47 39 -78t93 -31q63 0 123 37zM171 296h207q-3 37 -29 60.5t-65 23.5t-69 -22.5t-44 -61.5z" />
    <glyph glyph-name="ecircumflex" unicode="&#xea;" horiz-adv-x="536" 
d="M405 710l70 -160h-85l-65 90l-95 -90h-95l130 160h140zM411 132l54 -88q-75 -54 -178 -54q-106 0 -178.5 66.5t-72.5 173.5q0 103 71.5 179t177.5 76q93 0 154.5 -63t61.5 -157q0 -31 -8 -61h-337q4 -47 39 -78t93 -31q63 0 123 37zM171 296h207q-3 37 -29 60.5t-65 23.5
t-69 -22.5t-44 -61.5z" />
    <glyph glyph-name="edieresis" unicode="&#xeb;" horiz-adv-x="536" 
d="M135 632q0 33 23.5 55.5t56.5 22.5t56.5 -22.5t23.5 -55.5t-23.5 -55.5t-56.5 -22.5t-56.5 22.5t-23.5 55.5zM345 632q0 33 23.5 55.5t56.5 22.5t56.5 -22.5t23.5 -55.5t-23.5 -55.5t-56.5 -22.5t-56.5 22.5t-23.5 55.5zM411 132l54 -88q-75 -54 -178 -54
q-106 0 -178.5 66.5t-72.5 173.5q0 103 71.5 179t177.5 76q93 0 154.5 -63t61.5 -157q0 -31 -8 -61h-337q4 -47 39 -78t93 -31q63 0 123 37zM171 296h207q-3 37 -29 60.5t-65 23.5t-69 -22.5t-44 -61.5z" />
    <glyph glyph-name="igrave" unicode="&#xec;" horiz-adv-x="277" 
d="M114 475h131l-84 -475h-131zM29 710h140l70 -160h-90z" />
    <glyph glyph-name="iacute" unicode="&#xed;" horiz-adv-x="277" 
d="M114 475h131l-84 -475h-131zM218 710h140l-120 -160h-90z" />
    <glyph glyph-name="icircumflex" unicode="&#xee;" horiz-adv-x="277" 
d="M114 475h131l-84 -475h-131zM292 710l70 -160h-85l-65 90l-95 -90h-95l130 160h140z" />
    <glyph glyph-name="idieresis" unicode="&#xef;" horiz-adv-x="277" 
d="M114 475h131l-84 -475h-131zM16 632q0 33 23.5 55.5t56.5 22.5t56.5 -22.5t23.5 -55.5t-23.5 -55.5t-56.5 -22.5t-56.5 22.5t-23.5 55.5zM226 632q0 33 23.5 55.5t56.5 22.5t56.5 -22.5t23.5 -55.5t-23.5 -55.5t-56.5 -22.5t-56.5 22.5t-23.5 55.5z" />
    <glyph glyph-name="eth" unicode="&#xf0;" horiz-adv-x="587" 
d="M213 710h137l15 -27l99 41l39 -93l-90 -37l71 -129q36 -66 52 -113.5t16 -103.5q0 -106 -79 -182t-187 -76q-107 0 -178.5 68.5t-71.5 168.5q0 107 79.5 182.5t188.5 75.5q20 0 32 -2l-34 63l-103 -44l-40 92l95 40zM405 336q-38 29 -92 29q-61 0 -104 -39.5t-43 -98.5
q0 -51 34.5 -84t85.5 -33q58 0 98 43t40 101q0 46 -19 82z" />
    <glyph glyph-name="ntilde" unicode="&#xf1;" horiz-adv-x="623" 
d="M114 475h121l-7 -35q64 45 135 45q50 0 93.5 -22.5t70.5 -62.5q36 -53 36 -124q0 -37 -8 -85l-34 -191h-131l38 213q6 35 6 57q0 42 -23.5 68.5t-67.5 26.5q-68 0 -128 -60l-54 -305h-131zM475 710l80 -16q0 -57 -29.5 -95.5t-81.5 -38.5q-32 0 -81 25t-68 25
q-35 0 -40 -50l-80 16q0 57 29.5 95.5t81.5 38.5q32 0 81 -25t68 -25q35 0 40 50z" />
    <glyph glyph-name="ograve" unicode="&#xf2;" horiz-adv-x="585" 
d="M166 227q0 -50 33.5 -83.5t83.5 -33.5q56 0 96.5 41t40.5 97q0 50 -33.5 83.5t-83.5 33.5q-56 0 -96.5 -41t-40.5 -97zM550 248q0 -107 -79 -182.5t-188 -75.5q-105 0 -176 69t-71 168q0 107 79 182.5t188 75.5q105 0 176 -69t71 -168zM171 710h140l70 -160h-90z" />
    <glyph glyph-name="oacute" unicode="&#xf3;" horiz-adv-x="585" 
d="M166 227q0 -50 33.5 -83.5t83.5 -33.5q56 0 96.5 41t40.5 97q0 50 -33.5 83.5t-83.5 33.5q-56 0 -96.5 -41t-40.5 -97zM550 248q0 -107 -79 -182.5t-188 -75.5q-105 0 -176 69t-71 168q0 107 79 182.5t188 75.5q105 0 176 -69t71 -168zM346 710h140l-120 -160h-90z" />
    <glyph glyph-name="ocircumflex" unicode="&#xf4;" horiz-adv-x="585" 
d="M166 227q0 -50 33.5 -83.5t83.5 -33.5q56 0 96.5 41t40.5 97q0 50 -33.5 83.5t-83.5 33.5q-56 0 -96.5 -41t-40.5 -97zM550 248q0 -107 -79 -182.5t-188 -75.5q-105 0 -176 69t-71 168q0 107 79 182.5t188 75.5q105 0 176 -69t71 -168zM438 710l70 -160h-85l-65 90
l-95 -90h-95l130 160h140z" />
    <glyph glyph-name="otilde" unicode="&#xf5;" horiz-adv-x="585" 
d="M166 227q0 -50 33.5 -83.5t83.5 -33.5q56 0 96.5 41t40.5 97q0 50 -33.5 83.5t-83.5 33.5q-56 0 -96.5 -41t-40.5 -97zM550 248q0 -107 -79 -182.5t-188 -75.5q-105 0 -176 69t-71 168q0 107 79 182.5t188 75.5q105 0 176 -69t71 -168zM451 710l80 -16q0 -57 -29.5 -95.5
t-81.5 -38.5q-32 0 -81 25t-68 25q-35 0 -40 -50l-80 16q0 57 29.5 95.5t81.5 38.5q32 0 81 -25t68 -25q35 0 40 50z" />
    <glyph glyph-name="odieresis" unicode="&#xf6;" horiz-adv-x="585" 
d="M166 227q0 -50 33.5 -83.5t83.5 -33.5q56 0 96.5 41t40.5 97q0 50 -33.5 83.5t-83.5 33.5q-56 0 -96.5 -41t-40.5 -97zM550 248q0 -107 -79 -182.5t-188 -75.5q-105 0 -176 69t-71 168q0 107 79 182.5t188 75.5q105 0 176 -69t71 -168zM151 632q0 33 23.5 55.5t56.5 22.5
t56.5 -22.5t23.5 -55.5t-23.5 -55.5t-56.5 -22.5t-56.5 22.5t-23.5 55.5zM361 632q0 33 23.5 55.5t56.5 22.5t56.5 -22.5t23.5 -55.5t-23.5 -55.5t-56.5 -22.5t-56.5 22.5t-23.5 55.5z" />
    <glyph glyph-name="divide" unicode="&#xf7;" horiz-adv-x="570" 
d="M71 335h461l-19 -110h-461zM186 103q0 31 22 52t53 21t53 -21t22 -52t-22 -52t-53 -21t-53 21t-22 52zM248 457q0 31 22 52t53 21t53 -21t22 -52t-22 -52t-53 -21t-53 21t-22 52z" />
    <glyph glyph-name="oslash" unicode="&#xf8;" horiz-adv-x="585" 
d="M160 -10h-152l78 92q-50 63 -50 145q0 107 79 182.5t188 75.5q55 0 105 -22l18 22h153l-79 -93q50 -65 50 -144q0 -107 -79 -182.5t-188 -75.5q-55 0 -105 21zM166 227q0 -24 7 -42l150 178q-14 2 -20 2q-56 0 -96.5 -41t-40.5 -97zM420 248q0 18 -7 41l-150 -178
q6 -1 20 -1q56 0 96.5 41t40.5 97z" />
    <glyph glyph-name="ugrave" unicode="&#xf9;" horiz-adv-x="615" 
d="M178 710h140l70 -160h-90zM499 0h-121l7 35q-64 -45 -132 -45q-103 0 -162 85q-36 53 -36 124q0 37 8 85l34 191h131l-38 -213q-6 -35 -6 -57q0 -40 25 -67.5t67 -27.5q62 0 122 60l54 305h131z" />
    <glyph glyph-name="uacute" unicode="&#xfa;" horiz-adv-x="615" 
d="M373 710h140l-120 -160h-90zM499 0h-121l7 35q-64 -45 -132 -45q-103 0 -162 85q-36 53 -36 124q0 37 8 85l34 191h131l-38 -213q-6 -35 -6 -57q0 -40 25 -67.5t67 -27.5q62 0 122 60l54 305h131z" />
    <glyph glyph-name="ucircumflex" unicode="&#xfb;" horiz-adv-x="615" 
d="M445 710l70 -160h-85l-65 90l-95 -90h-95l130 160h140zM499 0h-121l7 35q-64 -45 -132 -45q-103 0 -162 85q-36 53 -36 124q0 37 8 85l34 191h131l-38 -213q-6 -35 -6 -57q0 -40 25 -67.5t67 -27.5q62 0 122 60l54 305h131z" />
    <glyph glyph-name="udieresis" unicode="&#xfc;" horiz-adv-x="615" 
d="M168 632q0 33 23.5 55.5t56.5 22.5t56.5 -22.5t23.5 -55.5t-23.5 -55.5t-56.5 -22.5t-56.5 22.5t-23.5 55.5zM378 632q0 33 23.5 55.5t56.5 22.5t56.5 -22.5t23.5 -55.5t-23.5 -55.5t-56.5 -22.5t-56.5 22.5t-23.5 55.5zM499 0h-121l7 35q-64 -45 -132 -45
q-103 0 -162 85q-36 53 -36 124q0 37 8 85l34 191h131l-38 -213q-6 -35 -6 -57q0 -40 25 -67.5t67 -27.5q62 0 122 60l54 305h131z" />
    <glyph glyph-name="yacute" unicode="&#xfd;" horiz-adv-x="575" 
d="M351 710h140l-120 -160h-90zM458 475h147l-458 -715h-147l185 288l-140 427h133l94 -294z" />
    <glyph glyph-name="thorn" unicode="&#xfe;" horiz-adv-x="608" 
d="M216 313l-27 -155q45 -47 115 -47q57 0 98 41.5t41 102.5q0 49 -30 80t-81 31q-66 0 -116 -53zM156 710h131l-46 -258q47 33 119 33q88 0 150.5 -63t62.5 -161q0 -70 -34.5 -135t-94.5 -100q-63 -36 -131 -36q-72 0 -146 48l-48 -278h-131z" />
    <glyph glyph-name="ydieresis" unicode="&#xff;" horiz-adv-x="575" 
d="M159 632q0 33 23.5 55.5t56.5 22.5t56.5 -22.5t23.5 -55.5t-23.5 -55.5t-56.5 -22.5t-56.5 22.5t-23.5 55.5zM369 632q0 33 23.5 55.5t56.5 22.5t56.5 -22.5t23.5 -55.5t-23.5 -55.5t-56.5 -22.5t-56.5 22.5t-23.5 55.5zM458 475h147l-458 -715h-147l185 288l-140 427
h133l94 -294z" />
    <glyph glyph-name="Amacron" unicode="&#x100;" horiz-adv-x="699" 
d="M290 890h320v-100h-320v100zM113 0h-153l424 700h95l185 -700h-135l-41 155h-281zM403 477l-123 -202h176z" />
    <glyph glyph-name="amacron" unicode="&#x101;" horiz-adv-x="611" 
d="M205 680h320v-100h-320v100zM459 475h120l-84 -475h-119l5 32q-54 -42 -132 -42q-88 0 -150.5 63t-62.5 161q0 70 34.5 135t94.5 100q63 36 131 36q81 0 155 -55zM393 162l27 155q-45 47 -115 47q-57 0 -98 -41.5t-41 -102.5q0 -49 30 -80t81 -31q66 0 116 53z" />
    <glyph glyph-name="Abreve" unicode="&#x102;" horiz-adv-x="699" 
d="M495 920h105q0 -62 -44 -106t-106 -44t-106 44t-44 106h105q0 -19 13 -32t32 -13t32 13t13 32zM113 0h-153l424 700h95l185 -700h-135l-41 155h-281zM403 477l-123 -202h176z" />
    <glyph glyph-name="abreve" unicode="&#x103;" horiz-adv-x="611" 
d="M420 710h105q0 -62 -44 -106t-106 -44t-106 44t-44 106h105q0 -19 13 -32t32 -13t32 13t13 32zM459 475h120l-84 -475h-119l5 32q-54 -42 -132 -42q-88 0 -150.5 63t-62.5 161q0 70 34.5 135t94.5 100q63 36 131 36q81 0 155 -55zM393 162l27 155q-45 47 -115 47
q-57 0 -98 -41.5t-41 -102.5q0 -49 30 -80t81 -31q66 0 116 53z" />
    <glyph glyph-name="Aogonek" unicode="&#x104;" horiz-adv-x="699" 
d="M113 0h-153l424 700h95l185 -700q-25 -36 -25 -63q0 -18 11 -30t29 -12q13 0 25 4l15 -109q-20 -10 -65 -10q-61 0 -98 34.5t-37 85.5q0 55 30 100h-20l-41 155h-281zM403 477l-123 -202h176z" />
    <glyph glyph-name="aogonek" unicode="&#x105;" horiz-adv-x="611" 
d="M459 475h120l-84 -475q-25 -36 -25 -63q0 -18 11 -30t29 -12q13 0 25 4l15 -109q-20 -10 -65 -10q-61 0 -98 34.5t-37 85.5q0 50 24 91l7 41q-54 -42 -132 -42q-88 0 -150.5 63t-62.5 161q0 70 34.5 135t94.5 100q63 36 131 36q81 0 155 -55zM393 162l27 155
q-45 47 -115 47q-57 0 -98 -41.5t-41 -102.5q0 -49 30 -80t81 -31q66 0 116 53z" />
    <glyph glyph-name="Cacute" unicode="&#x106;" horiz-adv-x="717" 
d="M722 587l-93 -81q-79 84 -188 84q-104 0 -180 -76.5t-76 -183.5q0 -96 64 -158t159 -62q108 0 188 80l83 -88q-49 -53 -120.5 -82.5t-150.5 -29.5q-152 0 -255 97t-103 243q0 157 115 268.5t272 111.5q179 0 285 -123zM483 920h140l-120 -160h-90z" />
    <glyph glyph-name="cacute" unicode="&#x107;" horiz-adv-x="520" 
d="M338 710h140l-120 -160h-90zM399 153l77 -88q-80 -75 -187 -75q-108 0 -180.5 69t-72.5 171q0 108 78 181.5t187 73.5q124 0 199 -89l-85 -79q-48 48 -110 48q-54 0 -96.5 -39t-42.5 -96q0 -50 36.5 -85t90.5 -35q57 0 106 43z" />
    <glyph glyph-name="Ccircumflex" unicode="&#x108;" horiz-adv-x="717" 
d="M722 587l-93 -81q-79 84 -188 84q-104 0 -180 -76.5t-76 -183.5q0 -96 64 -158t159 -62q108 0 188 80l83 -88q-49 -53 -120.5 -82.5t-150.5 -29.5q-152 0 -255 97t-103 243q0 157 115 268.5t272 111.5q179 0 285 -123zM548 920l70 -160h-85l-65 90l-95 -90h-95l130 160
h140z" />
    <glyph glyph-name="ccircumflex" unicode="&#x109;" horiz-adv-x="520" 
d="M420 710l70 -160h-85l-65 90l-95 -90h-95l130 160h140zM399 153l77 -88q-80 -75 -187 -75q-108 0 -180.5 69t-72.5 171q0 108 78 181.5t187 73.5q124 0 199 -89l-85 -79q-48 48 -110 48q-54 0 -96.5 -39t-42.5 -96q0 -50 36.5 -85t90.5 -35q57 0 106 43z" />
    <glyph glyph-name="Cdotaccent" unicode="&#x10a;" horiz-adv-x="717" 
d="M722 587l-93 -81q-79 84 -188 84q-104 0 -180 -76.5t-76 -183.5q0 -96 64 -158t159 -62q108 0 188 80l83 -88q-49 -53 -120.5 -82.5t-150.5 -29.5q-152 0 -255 97t-103 243q0 157 115 268.5t272 111.5q179 0 285 -123zM395 857q0 35 25 59t60 24t60 -24t25 -59t-25 -59
t-60 -24t-60 24t-25 59z" />
    <glyph glyph-name="cdotaccent" unicode="&#x10b;" horiz-adv-x="520" 
d="M250 647q0 35 25 59t60 24t60 -24t25 -59t-25 -59t-60 -24t-60 24t-25 59zM399 153l77 -88q-80 -75 -187 -75q-108 0 -180.5 69t-72.5 171q0 108 78 181.5t187 73.5q124 0 199 -89l-85 -79q-48 48 -110 48q-54 0 -96.5 -39t-42.5 -96q0 -50 36.5 -85t90.5 -35
q57 0 106 43z" />
    <glyph glyph-name="Ccaron" unicode="&#x10c;" horiz-adv-x="717" 
d="M722 587l-93 -81q-79 84 -188 84q-104 0 -180 -76.5t-76 -183.5q0 -96 64 -158t159 -62q108 0 188 80l83 -88q-49 -53 -120.5 -82.5t-150.5 -29.5q-152 0 -255 97t-103 243q0 157 115 268.5t272 111.5q179 0 285 -123zM408 760l-70 160h85l65 -90l95 90h95l-130 -160
h-140z" />
    <glyph glyph-name="ccaron" unicode="&#x10d;" horiz-adv-x="520" 
d="M263 550l-70 160h85l65 -90l95 90h95l-130 -160h-140zM399 153l77 -88q-80 -75 -187 -75q-108 0 -180.5 69t-72.5 171q0 108 78 181.5t187 73.5q124 0 199 -89l-85 -79q-48 48 -110 48q-54 0 -96.5 -39t-42.5 -96q0 -50 36.5 -85t90.5 -35q57 0 106 43z" />
    <glyph glyph-name="Dcaron" unicode="&#x10e;" horiz-adv-x="734" 
d="M319 0h-282l124 700h190q140 0 226 -56q69 -45 108 -117t39 -158q0 -89 -43.5 -169t-117.5 -132q-97 -68 -244 -68zM194 120h124q106 0 173 52q45 36 71.5 88t26.5 109q0 100 -72 162q-57 49 -166 49h-75zM287 760l-70 160h85l65 -90l95 90h95l-130 -160h-140z" />
    <glyph glyph-name="dcaron" unicode="&#x10f;" horiz-adv-x="691" 
d="M701 700h140l-120 -160h-90zM393 162l27 155q-45 47 -115 47q-57 0 -98 -41.5t-41 -102.5q0 -49 30 -80t81 -31q66 0 116 53zM490 710h131l-126 -710h-119l5 32q-54 -42 -132 -42q-88 0 -150.5 63t-62.5 161q0 70 34.5 135t94.5 100q63 36 131 36q72 0 146 -48z" />
    <glyph glyph-name="Dcroat" unicode="&#x110;" horiz-adv-x="734" 
d="M336 0h-282l56 315h-100l21 120h100l47 265h190q140 0 226 -56q69 -45 108 -117t39 -158q0 -89 -43.5 -169t-117.5 -132q-97 -68 -244 -68zM211 120h124q106 0 173 52q45 36 71.5 88t26.5 109q0 100 -72 162q-57 49 -166 49h-75l-26 -145h200l-21 -120h-200z" />
    <glyph glyph-name="dcroat" unicode="&#x111;" horiz-adv-x="611" 
d="M591 540l-96 -540h-119l5 32q-54 -42 -132 -42q-88 0 -150.5 63t-62.5 161q0 70 34.5 135t94.5 100q63 36 131 36q72 0 146 -48l18 103h-131l20 110h130l11 60h131l-11 -60h80l-20 -110h-79zM393 162l27 155q-45 47 -115 47q-57 0 -98 -41.5t-41 -102.5q0 -49 30 -80
t81 -31q66 0 116 53z" />
    <glyph glyph-name="Emacron" unicode="&#x112;" horiz-adv-x="546" 
d="M37 0l124 700h420l-21 -120h-284l-26 -145h214l-21 -120h-214l-35 -195h294l-21 -120h-430zM223 890h320v-100h-320v100z" />
    <glyph glyph-name="emacron" unicode="&#x113;" horiz-adv-x="536" 
d="M178 680h320v-100h-320v100zM411 132l54 -88q-75 -54 -178 -54q-106 0 -178.5 66.5t-72.5 173.5q0 103 71.5 179t177.5 76q93 0 154.5 -63t61.5 -157q0 -31 -8 -61h-337q4 -47 39 -78t93 -31q63 0 123 37zM171 296h207q-3 37 -29 60.5t-65 23.5t-69 -22.5t-44 -61.5z" />
    <glyph glyph-name="Ebreve" unicode="&#x114;" horiz-adv-x="546" 
d="M37 0l124 700h420l-21 -120h-284l-26 -145h214l-21 -120h-214l-35 -195h294l-21 -120h-430zM427 920h105q0 -62 -44 -106t-106 -44t-106 44t-44 106h105q0 -19 13 -32t32 -13t32 13t13 32z" />
    <glyph glyph-name="ebreve" unicode="&#x115;" horiz-adv-x="536" 
d="M383 710h105q0 -62 -44 -106t-106 -44t-106 44t-44 106h105q0 -19 13 -32t32 -13t32 13t13 32zM411 132l54 -88q-75 -54 -178 -54q-106 0 -178.5 66.5t-72.5 173.5q0 103 71.5 179t177.5 76q93 0 154.5 -63t61.5 -157q0 -31 -8 -61h-337q4 -47 39 -78t93 -31q63 0 123 37
zM171 296h207q-3 37 -29 60.5t-65 23.5t-69 -22.5t-44 -61.5z" />
    <glyph glyph-name="Edotaccent" unicode="&#x116;" horiz-adv-x="546" 
d="M37 0l124 700h420l-21 -120h-284l-26 -145h214l-21 -120h-214l-35 -195h294l-21 -120h-430zM308 857q0 35 25 59t60 24t60 -24t25 -59t-25 -59t-60 -24t-60 24t-25 59z" />
    <glyph glyph-name="edotaccent" unicode="&#x117;" horiz-adv-x="536" 
d="M253 647q0 35 25 59t60 24t60 -24t25 -59t-25 -59t-60 -24t-60 24t-25 59zM411 132l54 -88q-75 -54 -178 -54q-106 0 -178.5 66.5t-72.5 173.5q0 103 71.5 179t177.5 76q93 0 154.5 -63t61.5 -157q0 -31 -8 -61h-337q4 -47 39 -78t93 -31q63 0 123 37zM171 296h207
q-3 37 -29 60.5t-65 23.5t-69 -22.5t-44 -61.5z" />
    <glyph glyph-name="Eogonek" unicode="&#x118;" horiz-adv-x="546" 
d="M37 0l124 700h420l-21 -120h-284l-26 -145h214l-21 -120h-214l-35 -195h294l-21 -120h-84q-25 -36 -25 -63q0 -18 11 -30t29 -12q13 0 25 4l15 -109q-20 -10 -65 -10q-61 0 -98 34.5t-37 85.5q0 55 30 100h-231z" />
    <glyph glyph-name="eogonek" unicode="&#x119;" horiz-adv-x="536" 
d="M411 132l54 -88q-31 -23 -74 -37q-30 -38 -30 -70q0 -18 11 -30t29 -12q13 0 25 4l15 -109q-20 -10 -65 -10q-61 0 -98 34.5t-37 85.5q0 49 25 91q-99 7 -164.5 72t-65.5 167q0 103 71.5 179t177.5 76q93 0 154.5 -63t61.5 -157q0 -31 -8 -61h-337q4 -47 39 -78t93 -31
q63 0 123 37zM171 296h207q-3 37 -29 60.5t-65 23.5t-69 -22.5t-44 -61.5z" />
    <glyph glyph-name="Ecaron" unicode="&#x11a;" horiz-adv-x="546" 
d="M37 0l124 700h420l-21 -120h-284l-26 -145h214l-21 -120h-214l-35 -195h294l-21 -120h-430zM303 760l-70 160h85l65 -90l95 90h95l-130 -160h-140z" />
    <glyph glyph-name="ecaron" unicode="&#x11b;" horiz-adv-x="536" 
d="M248 550l-70 160h85l65 -90l95 90h95l-130 -160h-140zM411 132l54 -88q-75 -54 -178 -54q-106 0 -178.5 66.5t-72.5 173.5q0 103 71.5 179t177.5 76q93 0 154.5 -63t61.5 -157q0 -31 -8 -61h-337q4 -47 39 -78t93 -31q63 0 123 37zM171 296h207q-3 37 -29 60.5t-65 23.5
t-69 -22.5t-44 -61.5z" />
    <glyph glyph-name="Gcircumflex" unicode="&#x11c;" horiz-adv-x="754" 
d="M548 920l70 -160h-85l-65 90l-95 -90h-95l130 160h140zM722 587l-93 -81q-79 84 -188 84q-104 0 -180 -76.5t-76 -183.5q0 -96 64 -158t159 -62q74 0 138 40l29 165h-182l21 120h320l-58 -332q-50 -54 -120 -83.5t-148 -29.5q-152 0 -255 97t-103 243q0 157 115 268.5
t272 111.5q179 0 285 -123z" />
    <glyph glyph-name="gcircumflex" unicode="&#x11d;" horiz-adv-x="611" 
d="M460 710l70 -160h-85l-65 90l-95 -90h-95l130 160h140zM459 475h120l-81 -459q-20 -116 -58 -168q-72 -98 -217 -98q-64 0 -125.5 27.5t-97.5 74.5l88 84q53 -66 136 -66q64 0 96 35t46 108l2 10q-47 -33 -119 -33q-88 0 -150.5 63t-62.5 161q0 70 34.5 135t94.5 100
q63 36 131 36q81 0 155 -55zM393 162l27 155q-45 47 -115 47q-57 0 -98 -41.5t-41 -102.5q0 -49 30 -80t81 -31q66 0 116 53z" />
    <glyph glyph-name="Gbreve" unicode="&#x11e;" horiz-adv-x="754" 
d="M722 587l-93 -81q-79 84 -188 84q-104 0 -180 -76.5t-76 -183.5q0 -96 64 -158t159 -62q74 0 138 40l29 165h-182l21 120h320l-58 -332q-50 -54 -120 -83.5t-148 -29.5q-152 0 -255 97t-103 243q0 157 115 268.5t272 111.5q179 0 285 -123zM512 920h105q0 -62 -44 -106
t-106 -44t-106 44t-44 106h105q0 -19 13 -32t32 -13t32 13t13 32z" />
    <glyph glyph-name="gbreve" unicode="&#x11f;" horiz-adv-x="611" 
d="M410 710h105q0 -62 -44 -106t-106 -44t-106 44t-44 106h105q0 -19 13 -32t32 -13t32 13t13 32zM459 475h120l-81 -459q-20 -116 -58 -168q-72 -98 -217 -98q-64 0 -125.5 27.5t-97.5 74.5l88 84q53 -66 136 -66q64 0 96 35t46 108l2 10q-47 -33 -119 -33q-88 0 -150.5 63
t-62.5 161q0 70 34.5 135t94.5 100q63 36 131 36q81 0 155 -55zM393 162l27 155q-45 47 -115 47q-57 0 -98 -41.5t-41 -102.5q0 -49 30 -80t81 -31q66 0 116 53z" />
    <glyph glyph-name="Gdotaccent" unicode="&#x120;" horiz-adv-x="754" 
d="M395 857q0 35 25 59t60 24t60 -24t25 -59t-25 -59t-60 -24t-60 24t-25 59zM722 587l-93 -81q-79 84 -188 84q-104 0 -180 -76.5t-76 -183.5q0 -96 64 -158t159 -62q74 0 138 40l29 165h-182l21 120h320l-58 -332q-50 -54 -120 -83.5t-148 -29.5q-152 0 -255 97t-103 243
q0 157 115 268.5t272 111.5q179 0 285 -123z" />
    <glyph glyph-name="gdotaccent" unicode="&#x121;" horiz-adv-x="611" 
d="M300 647q0 35 25 59t60 24t60 -24t25 -59t-25 -59t-60 -24t-60 24t-25 59zM459 475h120l-81 -459q-20 -116 -58 -168q-72 -98 -217 -98q-64 0 -125.5 27.5t-97.5 74.5l88 84q53 -66 136 -66q64 0 96 35t46 108l2 10q-47 -33 -119 -33q-88 0 -150.5 63t-62.5 161
q0 70 34.5 135t94.5 100q63 36 131 36q81 0 155 -55zM393 162l27 155q-45 47 -115 47q-57 0 -98 -41.5t-41 -102.5q0 -49 30 -80t81 -31q66 0 116 53z" />
    <glyph glyph-name="Gcommaaccent" unicode="&#x122;" horiz-adv-x="754" 
d="M722 587l-93 -81q-79 84 -188 84q-104 0 -180 -76.5t-76 -183.5q0 -96 64 -158t159 -62q74 0 138 40l29 165h-182l21 120h320l-58 -332q-50 -54 -120 -83.5t-148 -29.5q-152 0 -255 97t-103 243q0 157 115 268.5t272 111.5q179 0 285 -123zM332 -60h140l-120 -160h-90z
" />
    <glyph glyph-name="gcommaaccent" unicode="&#x123;" horiz-adv-x="611" 
d="M405 550h-140l120 160h90zM459 475h120l-81 -459q-20 -116 -58 -168q-72 -98 -217 -98q-64 0 -125.5 27.5t-97.5 74.5l88 84q53 -66 136 -66q64 0 96 35t46 108l2 10q-47 -33 -119 -33q-88 0 -150.5 63t-62.5 161q0 70 34.5 135t94.5 100q63 36 131 36q81 0 155 -55z
M393 162l27 155q-45 47 -115 47q-57 0 -98 -41.5t-41 -102.5q0 -49 30 -80t81 -31q66 0 116 53z" />
    <glyph glyph-name="Hcircumflex" unicode="&#x124;" horiz-adv-x="779" 
d="M522 0l56 315h-349l-56 -315h-136l124 700h136l-47 -265h349l47 265h136l-124 -700h-136zM576 920l70 -160h-85l-65 90l-95 -90h-95l130 160h140z" />
    <glyph glyph-name="hcircumflex" unicode="&#x125;" horiz-adv-x="623" 
d="M334 930l70 -160h-85l-65 90l-95 -90h-95l130 160h140zM156 710h130l-47 -263q61 38 130 38q48 0 89.5 -23t68.5 -62q36 -53 36 -124q0 -37 -8 -85l-34 -191h-131l38 213q6 35 6 57q0 42 -23.5 68.5t-67.5 26.5q-68 0 -128 -60l-54 -305h-131z" />
    <glyph glyph-name="Hbar" unicode="&#x126;" horiz-adv-x="779" 
d="M522 0l56 315h-349l-56 -315h-136l92 521h-100l21 120h100l11 59h136l-11 -59h349l11 59h136l-11 -59h101l-21 -120h-101l-92 -521h-136zM250 435h349l15 86h-349z" />
    <glyph glyph-name="hbar" unicode="&#x127;" horiz-adv-x="623" 
d="M156 710h131l-13 -70h131l-18 -100h-132l-16 -93q61 38 130 38q48 0 89.5 -23t68.5 -62q36 -53 36 -124q0 -37 -8 -85l-34 -191h-131l38 213q6 35 6 57q0 42 -23.5 68.5t-67.5 26.5q-68 0 -128 -60l-54 -305h-131l96 540h-80l18 100h79z" />
    <glyph glyph-name="Itilde" unicode="&#x128;" horiz-adv-x="294" 
d="M37 0l124 700h136l-124 -700h-136zM361 920l80 -16q0 -57 -29.5 -95.5t-81.5 -38.5q-32 0 -81 25t-68 25q-35 0 -40 -50l-80 16q0 57 29.5 95.5t81.5 38.5q32 0 81 -25t68 -25q35 0 40 50z" />
    <glyph glyph-name="itilde" unicode="&#x129;" horiz-adv-x="277" 
d="M114 475h131l-84 -475h-131zM98 560l-89 16q3 53 32 93.5t82 40.5q31 0 79.5 -25t60.5 -25q33 0 37 50l89 -16q-3 -53 -32 -93.5t-82 -40.5q-31 0 -79.5 25t-60.5 25q-33 0 -37 -50z" />
    <glyph glyph-name="Imacron" unicode="&#x12a;" horiz-adv-x="294" 
d="M37 0l124 700h136l-124 -700h-136zM78 890h320v-100h-320v100z" />
    <glyph glyph-name="imacron" unicode="&#x12b;" horiz-adv-x="277" 
d="M114 475h131l-84 -475h-131zM41 680h320v-100h-320v100z" />
    <glyph glyph-name="Ibreve" unicode="&#x12c;" horiz-adv-x="294" 
d="M37 0l124 700h136l-124 -700h-136zM292 920h105q0 -62 -44 -106t-106 -44t-106 44t-44 106h105q0 -19 13 -32t32 -13t32 13t13 32z" />
    <glyph glyph-name="ibreve" unicode="&#x12d;" horiz-adv-x="277" 
d="M114 475h131l-84 -475h-131zM251 710h105q0 -62 -44 -106t-106 -44t-106 44t-44 106h105q0 -19 13 -32t32 -13t32 13t13 32z" />
    <glyph glyph-name="Iogonek" unicode="&#x12e;" horiz-adv-x="294" 
d="M37 0l124 700h136l-124 -700q-26 -38 -26 -63q0 -18 11 -30t29 -12q13 0 25 4l15 -109q-20 -10 -65 -10q-61 0 -98 34.5t-37 85.5q0 55 30 100h-20z" />
    <glyph glyph-name="iogonek" unicode="&#x12f;" horiz-adv-x="277" 
d="M245 475l-84 -475q-25 -36 -25 -63q0 -18 11 -30t29 -12q13 0 25 4l15 -109q-20 -10 -65 -10q-61 0 -98 34.5t-37 85.5q0 55 30 100h-16l84 475h131z" />
    <glyph glyph-name="Idotaccent" unicode="&#x130;" horiz-adv-x="294" 
d="M37 0l124 700h136l-124 -700h-136zM166 857q0 35 25 59t60 24t60 -24t25 -59t-25 -59t-60 -24t-60 24t-25 59z" />
    <glyph glyph-name="dotlessi" unicode="&#x131;" horiz-adv-x="277" 
d="M114 475h131l-84 -475h-131z" />
    <glyph glyph-name="IJ" unicode="&#x132;" horiz-adv-x="787" 
d="M37 0l124 700h136l-124 -700h-136zM802 700l-89 -501q-17 -95 -56 -140q-57 -69 -163 -69q-68 0 -118.5 32.5t-76.5 79.5l106 61q30 -53 89 -53q42 0 63 29q15 21 23 61l89 500h133z" />
    <glyph glyph-name="ij" unicode="&#x133;" horiz-adv-x="596" 
d="M114 475h131l-84 -475h-131zM125 647q0 35 25 59t60 24t60 -24t25 -59t-25 -59t-60 -24t-60 24t-25 59zM140 -227l44 104q27 -12 60 -12q82 0 96 85l93 525h131l-89 -503q-21 -117 -75 -169.5t-152 -52.5q-65 0 -108 23zM444 647q0 35 25 59t60 24t60 -24t25 -59t-25 -59
t-60 -24t-60 24t-25 59z" />
    <glyph glyph-name="Jcircumflex" unicode="&#x134;" horiz-adv-x="493" 
d="M541 920l70 -160h-85l-65 90l-95 -90h-95l130 160h140zM508 700l-89 -501q-17 -95 -56 -140q-57 -69 -163 -69q-68 0 -118.5 32.5t-76.5 79.5l106 61q30 -53 89 -53q42 0 63 29q15 21 23 61l89 500h133z" />
    <glyph glyph-name="jcircumflex" unicode="&#x135;" horiz-adv-x="319" 
d="M324 710l70 -160h-85l-65 90l-95 -90h-95l130 160h140zM-95 -242l28 116q16 -4 35 -4q39 0 65 23q24 22 31 62l92 520h131l-89 -503q-16 -91 -40 -129q-56 -93 -187 -93q-37 0 -66 8z" />
    <glyph glyph-name="Kcommaaccent" unicode="&#x136;" horiz-adv-x="703" 
d="M37 0l124 700h136l-49 -279l311 279h194l-378 -334l285 -366h-163l-263 344l-61 -344h-136zM242 -60h140l-120 -160h-90z" />
    <glyph glyph-name="kcommaaccent" unicode="&#x137;" horiz-adv-x="574" 
d="M584 475l-265 -218l221 -257h-163l-179 212l-37 -212h-131l126 710h131l-67 -380l172 145h192zM192 -60h140l-120 -160h-90z" />
    <glyph glyph-name="kgreenlandic" unicode="&#x138;" horiz-adv-x="574" 
d="M584 475l-265 -218l221 -257h-163l-179 212l-37 -212h-131l84 475h131l-25 -145l172 145h192z" />
    <glyph glyph-name="Lacute" unicode="&#x139;" horiz-adv-x="538" 
d="M252 920h140l-120 -160h-90zM37 0l124 700h136l-103 -580h294l-21 -120h-430z" />
    <glyph glyph-name="lacute" unicode="&#x13a;" horiz-adv-x="277" 
d="M248 930h140l-120 -160h-90zM30 0l126 710h131l-126 -710h-131z" />
    <glyph glyph-name="Lcommaaccent" unicode="&#x13b;" horiz-adv-x="538" 
d="M37 0l124 700h136l-103 -580h294l-21 -120h-430zM172 -60h140l-120 -160h-90z" />
    <glyph glyph-name="lcommaaccent" unicode="&#x13c;" horiz-adv-x="277" 
d="M30 0l126 710h131l-126 -710h-131zM20 -60h140l-120 -160h-90z" />
    <glyph glyph-name="Lcaron" unicode="&#x13d;" horiz-adv-x="538" 
d="M388 700h140l-120 -160h-90zM37 0l124 700h136l-103 -580h294l-21 -120h-430z" />
    <glyph glyph-name="lcaron" unicode="&#x13e;" horiz-adv-x="358" 
d="M368 700h140l-120 -160h-90zM30 0l126 710h131l-126 -710h-131z" />
    <glyph glyph-name="Ldot" unicode="&#x13f;" horiz-adv-x="538" 
d="M37 0l124 700h136l-103 -580h294l-21 -120h-430zM315 350q0 35 25 59t60 24t60 -24t25 -59t-25 -59t-60 -24t-60 24t-25 59z" />
    <glyph glyph-name="ldot" unicode="&#x140;" horiz-adv-x="377" 
d="M30 0l126 710h131l-126 -710h-131zM265 350q0 35 25 59t60 24t60 -24t25 -59t-25 -59t-60 -24t-60 24t-25 59z" />
    <glyph glyph-name="Lslash" unicode="&#x141;" horiz-adv-x="581" 
d="M80 0l46 260l-121 -63l25 142l121 63l53 298h136l-39 -220l155 81l-25 -142l-156 -81l-38 -218h294l-21 -120h-430z" />
    <glyph glyph-name="lslash" unicode="&#x142;" horiz-adv-x="277" 
d="M245 477l121 64l-24 -142l-122 -64l-59 -335h-131l46 260l-121 -64l24 142l122 64l55 308h131z" />
    <glyph glyph-name="Nacute" unicode="&#x143;" horiz-adv-x="779" 
d="M563 0l-307 470l-83 -470h-136l124 700h95l306 -470l84 470h136l-124 -700h-95zM484 920h140l-120 -160h-90z" />
    <glyph glyph-name="nacute" unicode="&#x144;" horiz-adv-x="623" 
d="M376 710h140l-120 -160h-90zM114 475h121l-7 -35q64 45 135 45q50 0 93.5 -22.5t70.5 -62.5q36 -53 36 -124q0 -37 -8 -85l-34 -191h-131l38 213q6 35 6 57q0 42 -23.5 68.5t-67.5 26.5q-68 0 -128 -60l-54 -305h-131z" />
    <glyph glyph-name="Ncommaaccent" unicode="&#x145;" horiz-adv-x="779" 
d="M563 0l-307 470l-83 -470h-136l124 700h95l306 -470l84 470h136l-124 -700h-95zM282 -60h140l-120 -160h-90z" />
    <glyph glyph-name="ncommaaccent" unicode="&#x146;" horiz-adv-x="623" 
d="M202 -60h140l-120 -160h-90zM114 475h121l-7 -35q64 45 135 45q50 0 93.5 -22.5t70.5 -62.5q36 -53 36 -124q0 -37 -8 -85l-34 -191h-131l38 213q6 35 6 57q0 42 -23.5 68.5t-67.5 26.5q-68 0 -128 -60l-54 -305h-131z" />
    <glyph glyph-name="Ncaron" unicode="&#x147;" horiz-adv-x="779" 
d="M563 0l-307 470l-83 -470h-136l124 700h95l306 -470l84 470h136l-124 -700h-95zM381 760l-70 160h85l65 -90l95 90h95l-130 -160h-140z" />
    <glyph glyph-name="ncaron" unicode="&#x148;" horiz-adv-x="623" 
d="M290 550l-70 160h85l65 -90l95 90h95l-130 -160h-140zM114 475h121l-7 -35q64 45 135 45q50 0 93.5 -22.5t70.5 -62.5q36 -53 36 -124q0 -37 -8 -85l-34 -191h-131l38 213q6 35 6 57q0 42 -23.5 68.5t-67.5 26.5q-68 0 -128 -60l-54 -305h-131z" />
    <glyph glyph-name="napostrophe" unicode="&#x149;" horiz-adv-x="623" 
d="M196 700h140l-120 -160h-90zM114 475h121l-7 -35q64 45 135 45q50 0 93.5 -22.5t70.5 -62.5q36 -53 36 -124q0 -37 -8 -85l-34 -191h-131l38 213q6 35 6 57q0 42 -23.5 68.5t-67.5 26.5q-68 0 -128 -60l-54 -305h-131z" />
    <glyph glyph-name="Eng" unicode="&#x14a;" horiz-adv-x="779" 
d="M658 0h-1l-7 -41q-17 -95 -56 -140q-57 -69 -163 -69q-68 0 -118.5 32.5t-76.5 79.5l106 61q30 -53 89 -53q42 0 63 29q15 21 23 61l15 87l-276 423l-83 -470h-136l124 700h95l306 -470l84 470h136z" />
    <glyph glyph-name="eng" unicode="&#x14b;" horiz-adv-x="623" 
d="M114 475h121l-7 -35q64 45 135 45q50 0 93.5 -22.5t70.5 -62.5q36 -53 36 -124q0 -37 -8 -85l-39 -219q-21 -117 -75 -169.5t-152 -52.5q-65 0 -108 23l44 104q27 -12 60 -12q82 0 96 85l47 263q6 35 6 57q0 42 -23.5 68.5t-67.5 26.5q-68 0 -128 -60l-54 -305h-131z" />
    <glyph glyph-name="Omacron" unicode="&#x14c;" horiz-adv-x="800" 
d="M185 330q0 -95 62.5 -157.5t155.5 -62.5q101 0 176.5 78.5t75.5 181.5q0 95 -62.5 157.5t-155.5 62.5q-101 0 -176.5 -78.5t-75.5 -181.5zM790 370q0 -152 -113.5 -266t-273.5 -114q-152 0 -252.5 98t-100.5 242q0 152 113.5 266t273.5 114q152 0 252.5 -98t100.5 -242z
M320 890h320v-100h-320v100z" />
    <glyph glyph-name="omacron" unicode="&#x14d;" horiz-adv-x="585" 
d="M166 227q0 -50 33.5 -83.5t83.5 -33.5q56 0 96.5 41t40.5 97q0 50 -33.5 83.5t-83.5 33.5q-56 0 -96.5 -41t-40.5 -97zM550 248q0 -107 -79 -182.5t-188 -75.5q-105 0 -176 69t-71 168q0 107 79 182.5t188 75.5q105 0 176 -69t71 -168zM192 680h320v-100h-320v100z" />
    <glyph glyph-name="Obreve" unicode="&#x14e;" horiz-adv-x="800" 
d="M185 330q0 -95 62.5 -157.5t155.5 -62.5q101 0 176.5 78.5t75.5 181.5q0 95 -62.5 157.5t-155.5 62.5q-101 0 -176.5 -78.5t-75.5 -181.5zM790 370q0 -152 -113.5 -266t-273.5 -114q-152 0 -252.5 98t-100.5 242q0 152 113.5 266t273.5 114q152 0 252.5 -98t100.5 -242z
M545 920h105q0 -62 -44 -106t-106 -44t-106 44t-44 106h105q0 -19 13 -32t32 -13t32 13t13 32z" />
    <glyph glyph-name="obreve" unicode="&#x14f;" horiz-adv-x="585" 
d="M166 227q0 -50 33.5 -83.5t83.5 -33.5q56 0 96.5 41t40.5 97q0 50 -33.5 83.5t-83.5 33.5q-56 0 -96.5 -41t-40.5 -97zM550 248q0 -107 -79 -182.5t-188 -75.5q-105 0 -176 69t-71 168q0 107 79 182.5t188 75.5q105 0 176 -69t71 -168zM407 710h105q0 -62 -44 -106
t-106 -44t-106 44t-44 106h105q0 -19 13 -32t32 -13t32 13t13 32z" />
    <glyph glyph-name="Ohungarumlaut" unicode="&#x150;" horiz-adv-x="800" 
d="M185 330q0 -95 62.5 -157.5t155.5 -62.5q101 0 176.5 78.5t75.5 181.5q0 95 -62.5 157.5t-155.5 62.5q-101 0 -176.5 -78.5t-75.5 -181.5zM790 370q0 -152 -113.5 -266t-273.5 -114q-152 0 -252.5 98t-100.5 242q0 152 113.5 266t273.5 114q152 0 252.5 -98t100.5 -242z
M370 920h140l-120 -160h-90zM590 920h140l-120 -160h-90z" />
    <glyph glyph-name="ohungarumlaut" unicode="&#x151;" horiz-adv-x="585" 
d="M166 227q0 -50 33.5 -83.5t83.5 -33.5q56 0 96.5 41t40.5 97q0 50 -33.5 83.5t-83.5 33.5q-56 0 -96.5 -41t-40.5 -97zM550 248q0 -107 -79 -182.5t-188 -75.5q-105 0 -176 69t-71 168q0 107 79 182.5t188 75.5q105 0 176 -69t71 -168zM232 710h140l-120 -160h-90z
M452 710h140l-120 -160h-90z" />
    <glyph glyph-name="OE" unicode="&#x152;" horiz-adv-x="1102" 
d="M593 0l8 47q-90 -57 -198 -57q-152 0 -252.5 98t-100.5 242q0 152 113.5 266t273.5 114q163 0 261 -114l19 104h420l-21 -120h-284l-26 -145h214l-21 -120h-214l-35 -195h294l-21 -120h-430zM185 330q0 -95 62.5 -157.5t155.5 -62.5q101 0 176.5 78.5t75.5 181.5
q0 95 -62.5 157.5t-155.5 62.5q-101 0 -176.5 -78.5t-75.5 -181.5z" />
    <glyph glyph-name="oe" unicode="&#x153;" horiz-adv-x="921" 
d="M796 132l54 -88q-75 -54 -178 -54q-125 0 -194 89q-76 -89 -195 -89q-105 0 -176 69t-71 168q0 107 79 182.5t188 75.5q118 0 186 -86q69 86 181 86q93 0 154.5 -63t61.5 -157q0 -31 -8 -61h-337q4 -47 39 -78t93 -31q63 0 123 37zM166 227q0 -50 33.5 -83.5t83.5 -33.5
q56 0 96.5 41t40.5 97q0 50 -33.5 83.5t-83.5 33.5q-56 0 -96.5 -41t-40.5 -97zM556 296h207q-3 37 -29 60.5t-65 23.5t-69 -22.5t-44 -61.5z" />
    <glyph glyph-name="Racute" unicode="&#x154;" horiz-adv-x="662" 
d="M161 700h197q97 0 150 -40q77 -57 77 -149q0 -53 -27 -97.5t-73 -70.5q-30 -17 -69 -24l221 -319h-157l-213 315h-38l-56 -315h-136zM352 580h-76l-27 -150h91q60 0 84 22q26 24 26 59q0 29 -19 48q-19 21 -79 21zM366 920h140l-120 -160h-90z" />
    <glyph glyph-name="racute" unicode="&#x155;" horiz-adv-x="396" 
d="M262 710h140l-120 -160h-90zM401 478l-37 -117q-15 4 -33 4q-33 0 -65.5 -20t-51.5 -45l-53 -300h-131l84 475h121l-8 -40q45 50 123 50q28 0 51 -7z" />
    <glyph glyph-name="Rcommaaccent" unicode="&#x156;" horiz-adv-x="662" 
d="M161 700h197q97 0 150 -40q77 -57 77 -149q0 -53 -27 -97.5t-73 -70.5q-30 -17 -69 -24l221 -319h-157l-213 315h-38l-56 -315h-136zM352 580h-76l-27 -150h91q60 0 84 22q26 24 26 59q0 29 -19 48q-19 21 -79 21zM242 -60h140l-120 -160h-90z" />
    <glyph glyph-name="rcommaaccent" unicode="&#x157;" horiz-adv-x="396" 
d="M20 -60h140l-120 -160h-90zM401 478l-37 -117q-15 4 -33 4q-33 0 -65.5 -20t-51.5 -45l-53 -300h-131l84 475h121l-8 -40q45 50 123 50q28 0 51 -7z" />
    <glyph glyph-name="Rcaron" unicode="&#x158;" horiz-adv-x="662" 
d="M161 700h197q97 0 150 -40q77 -57 77 -149q0 -53 -27 -97.5t-73 -70.5q-30 -17 -69 -24l221 -319h-157l-213 315h-38l-56 -315h-136zM352 580h-76l-27 -150h91q60 0 84 22q26 24 26 59q0 29 -19 48q-19 21 -79 21zM282 760l-70 160h85l65 -90l95 90h95l-130 -160h-140z
" />
    <glyph glyph-name="rcaron" unicode="&#x159;" horiz-adv-x="396" 
d="M208 550l-70 160h85l65 -90l95 90h95l-130 -160h-140zM401 478l-37 -117q-15 4 -33 4q-33 0 -65.5 -20t-51.5 -45l-53 -300h-131l84 475h121l-8 -40q45 50 123 50q28 0 51 -7z" />
    <glyph glyph-name="Sacute" unicode="&#x15a;" horiz-adv-x="552" 
d="M388 920h140l-120 -160h-90zM0 106l93 85q64 -81 161 -81q43 0 78.5 25.5t35.5 68.5q0 34 -27 60.5t-65 46.5t-76 42.5t-65 61.5t-27 91q0 88 68.5 146t168.5 58q130 0 217 -90l-89 -88q-49 58 -123 58q-42 0 -75.5 -23.5t-33.5 -61.5q0 -25 27 -47t65 -42t76 -45
t65 -67.5t27 -98.5q0 -91 -72.5 -153t-174.5 -62q-153 0 -254 116z" />
    <glyph glyph-name="sacute" unicode="&#x15b;" horiz-adv-x="450" 
d="M290 710h140l-120 -160h-90zM0 55l67 93q63 -48 126 -48q28 0 50 10.5t22 30.5q0 6 -2.5 11.5t-8.5 11t-12 9.5t-16.5 9.5t-17.5 8.5t-21 9.5t-21 9.5q-96 44 -96 125q0 68 60 109t135 41q86 0 160 -44l-55 -94q-49 28 -98 28q-14 0 -28.5 -2.5t-29 -12t-14.5 -25.5
q0 -14 12 -22.5t42.5 -20.5t42.5 -18q98 -49 98 -132q0 -69 -59.5 -110.5t-143.5 -41.5q-112 0 -192 65z" />
    <glyph glyph-name="Scircumflex" unicode="&#x15c;" horiz-adv-x="552" 
d="M483 920l70 -160h-85l-65 90l-95 -90h-95l130 160h140zM0 106l93 85q64 -81 161 -81q43 0 78.5 25.5t35.5 68.5q0 34 -27 60.5t-65 46.5t-76 42.5t-65 61.5t-27 91q0 88 68.5 146t168.5 58q130 0 217 -90l-89 -88q-49 58 -123 58q-42 0 -75.5 -23.5t-33.5 -61.5
q0 -25 27 -47t65 -42t76 -45t65 -67.5t27 -98.5q0 -91 -72.5 -153t-174.5 -62q-153 0 -254 116z" />
    <glyph glyph-name="scircumflex" unicode="&#x15d;" horiz-adv-x="450" 
d="M375 710l70 -160h-85l-65 90l-95 -90h-95l130 160h140zM0 55l67 93q63 -48 126 -48q28 0 50 10.5t22 30.5q0 6 -2.5 11.5t-8.5 11t-12 9.5t-16.5 9.5t-17.5 8.5t-21 9.5t-21 9.5q-96 44 -96 125q0 68 60 109t135 41q86 0 160 -44l-55 -94q-49 28 -98 28q-14 0 -28.5 -2.5
t-29 -12t-14.5 -25.5q0 -14 12 -22.5t42.5 -20.5t42.5 -18q98 -49 98 -132q0 -69 -59.5 -110.5t-143.5 -41.5q-112 0 -192 65z" />
    <glyph glyph-name="Scedilla" unicode="&#x15e;" horiz-adv-x="552" 
d="M0 106l93 85q64 -81 161 -81q43 0 78.5 25.5t35.5 68.5q0 34 -27 60.5t-65 46.5t-76 42.5t-65 61.5t-27 91q0 88 68.5 146t168.5 58q130 0 217 -90l-89 -88q-49 58 -123 58q-42 0 -75.5 -23.5t-33.5 -61.5q0 -25 27 -47t65 -42t76 -45t65 -67.5t27 -98.5
q0 -83 -61 -142.5t-152 -70.5l-26 -142h-130l59 146q-112 20 -191 110z" />
    <glyph glyph-name="scedilla" unicode="&#x15f;" horiz-adv-x="450" 
d="M0 55l67 93q63 -48 126 -48q28 0 50 10.5t22 30.5q0 6 -2.5 11.5t-8.5 11t-12 9.5t-16.5 9.5t-17.5 8.5t-21 9.5t-21 9.5q-96 44 -96 125q0 68 60 109t135 41q86 0 160 -44l-55 -94q-49 28 -98 28q-14 0 -28.5 -2.5t-29 -12t-14.5 -25.5q0 -14 12 -22.5t42.5 -20.5
t42.5 -18q98 -49 98 -132q0 -60 -45.5 -99.5t-114.5 -49.5l-27 -143h-130l59 145q-80 13 -137 60z" />
    <glyph glyph-name="Scaron" unicode="&#x160;" horiz-adv-x="552" 
d="M290 760l-70 160h85l65 -90l95 90h95l-130 -160h-140zM0 106l93 85q64 -81 161 -81q43 0 78.5 25.5t35.5 68.5q0 34 -27 60.5t-65 46.5t-76 42.5t-65 61.5t-27 91q0 88 68.5 146t168.5 58q130 0 217 -90l-89 -88q-49 58 -123 58q-42 0 -75.5 -23.5t-33.5 -61.5
q0 -25 27 -47t65 -42t76 -45t65 -67.5t27 -98.5q0 -91 -72.5 -153t-174.5 -62q-153 0 -254 116z" />
    <glyph glyph-name="scaron" unicode="&#x161;" horiz-adv-x="450" 
d="M220 550l-70 160h85l65 -90l95 90h95l-130 -160h-140zM0 55l67 93q63 -48 126 -48q28 0 50 10.5t22 30.5q0 6 -2.5 11.5t-8.5 11t-12 9.5t-16.5 9.5t-17.5 8.5t-21 9.5t-21 9.5q-96 44 -96 125q0 68 60 109t135 41q86 0 160 -44l-55 -94q-49 28 -98 28q-14 0 -28.5 -2.5
t-29 -12t-14.5 -25.5q0 -14 12 -22.5t42.5 -20.5t42.5 -18q98 -49 98 -132q0 -69 -59.5 -110.5t-143.5 -41.5q-112 0 -192 65z" />
    <glyph glyph-name="Tcommaaccent" unicode="&#x162;" horiz-adv-x="564" 
d="M111 700h506l-21 -120h-185l-103 -580h-136l103 580h-185zM162 -60h140l-120 -160h-90z" />
    <glyph glyph-name="tcommaaccent" unicode="&#x163;" horiz-adv-x="496" 
d="M210 -60h140l-120 -160h-90zM395 110l21 -110q-30 -10 -86 -10q-82 0 -136 49t-54 129q0 29 9 79l21 118h-135l20 110h135l24 135h131l-24 -135h165l-20 -110h-165l-24 -134q-7 -35 -7 -54q0 -38 18.5 -55t58.5 -17q28 0 48 5z" />
    <glyph glyph-name="Tcaron" unicode="&#x164;" horiz-adv-x="564" 
d="M111 700h506l-21 -120h-185l-103 -580h-136l103 580h-185zM291 760l-70 160h85l65 -90l95 90h95l-130 -160h-140z" />
    <glyph glyph-name="tcaron" unicode="&#x165;" horiz-adv-x="496" 
d="M452 700h140l-120 -160h-90zM395 110l21 -110q-30 -10 -86 -10q-82 0 -136 49t-54 129q0 29 9 79l21 118h-135l20 110h135l24 135h131l-24 -135h165l-20 -110h-165l-24 -134q-7 -35 -7 -54q0 -38 18.5 -55t58.5 -17q28 0 48 5z" />
    <glyph glyph-name="Tbar" unicode="&#x166;" horiz-adv-x="564" 
d="M364 315l-56 -315h-136l56 315h-140l21 120h140l26 145h-185l21 120h506l-21 -120h-185l-26 -145h140l-21 -120h-140z" />
    <glyph glyph-name="tbar" unicode="&#x167;" horiz-adv-x="496" 
d="M395 110l21 -110q-30 -10 -86 -10q-82 0 -136 49t-54 129q0 18 1 27h-137l20 110h135l11 60h-135l20 110h135l24 135h131l-24 -135h165l-20 -110h-165l-11 -60h165l-20 -110h-164q-1 -7 -1 -18q0 -38 18.5 -55t58.5 -17q28 0 48 5z" />
    <glyph glyph-name="Utilde" unicode="&#x168;" horiz-adv-x="752" 
d="M285 700l-60 -337q-15 -86 -15 -115q0 -66 43.5 -102t110.5 -36q93 0 142 58q38 44 58 157l67 375h136l-69 -389q-26 -151 -88 -222q-85 -99 -246 -99q-122 0 -205.5 70t-83.5 195q0 32 24 161l50 284h136zM365 770l-89 16q3 53 32 93.5t82 40.5q31 0 79.5 -25t60.5 -25
q33 0 37 50l89 -16q-3 -53 -32 -93.5t-82 -40.5q-31 0 -79.5 25t-60.5 25q-33 0 -37 -50z" />
    <glyph glyph-name="utilde" unicode="&#x169;" horiz-adv-x="615" 
d="M253 560l-89 16q3 53 32 93.5t82 40.5q31 0 79.5 -25t60.5 -25q33 0 37 50l89 -16q-3 -53 -32 -93.5t-82 -40.5q-31 0 -79.5 25t-60.5 25q-33 0 -37 -50zM499 0h-121l7 35q-64 -45 -132 -45q-103 0 -162 85q-36 53 -36 124q0 37 8 85l34 191h131l-38 -213q-6 -35 -6 -57
q0 -40 25 -67.5t67 -27.5q62 0 122 60l54 305h131z" />
    <glyph glyph-name="Umacron" unicode="&#x16a;" horiz-adv-x="752" 
d="M285 700l-60 -337q-15 -86 -15 -115q0 -66 43.5 -102t110.5 -36q93 0 142 58q38 44 58 157l67 375h136l-69 -389q-26 -151 -88 -222q-85 -99 -246 -99q-122 0 -205.5 70t-83.5 195q0 32 24 161l50 284h136zM307 890h320v-100h-320v100z" />
    <glyph glyph-name="umacron" unicode="&#x16b;" horiz-adv-x="615" 
d="M195 680h320v-100h-320v100zM499 0h-121l7 35q-64 -45 -132 -45q-103 0 -162 85q-36 53 -36 124q0 37 8 85l34 191h131l-38 -213q-6 -35 -6 -57q0 -40 25 -67.5t67 -27.5q62 0 122 60l54 305h131z" />
    <glyph glyph-name="Ubreve" unicode="&#x16c;" horiz-adv-x="752" 
d="M285 700l-60 -337q-15 -86 -15 -115q0 -66 43.5 -102t110.5 -36q93 0 142 58q38 44 58 157l67 375h136l-69 -389q-26 -151 -88 -222q-85 -99 -246 -99q-122 0 -205.5 70t-83.5 195q0 32 24 161l50 284h136zM513 920h105q0 -62 -44 -106t-106 -44t-106 44t-44 106h105
q0 -19 13 -32t32 -13t32 13t13 32z" />
    <glyph glyph-name="ubreve" unicode="&#x16d;" horiz-adv-x="615" 
d="M410 710h105q0 -62 -44 -106t-106 -44t-106 44t-44 106h105q0 -19 13 -32t32 -13t32 13t13 32zM499 0h-121l7 35q-64 -45 -132 -45q-103 0 -162 85q-36 53 -36 124q0 37 8 85l34 191h131l-38 -213q-6 -35 -6 -57q0 -40 25 -67.5t67 -27.5q62 0 122 60l54 305h131z" />
    <glyph glyph-name="Uring" unicode="&#x16e;" horiz-adv-x="752" 
d="M285 700l-60 -337q-15 -86 -15 -115q0 -66 43.5 -102t110.5 -36q93 0 142 58q38 44 58 157l67 375h136l-69 -389q-26 -151 -88 -222q-85 -99 -246 -99q-122 0 -205.5 70t-83.5 195q0 32 24 161l50 284h136zM346 850q0 46 32 78t78 32t78 -32t32 -78t-32 -78t-78 -32
t-78 32t-32 78zM426 850q0 -13 8.5 -21.5t21.5 -8.5t21.5 8.5t8.5 21.5t-8.5 21.5t-21.5 8.5t-21.5 -8.5t-8.5 -21.5z" />
    <glyph glyph-name="uring" unicode="&#x16f;" horiz-adv-x="615" 
d="M247 640q0 46 32 78t78 32t78 -32t32 -78t-32 -78t-78 -32t-78 32t-32 78zM327 640q0 -13 8.5 -21.5t21.5 -8.5t21.5 8.5t8.5 21.5t-8.5 21.5t-21.5 8.5t-21.5 -8.5t-8.5 -21.5zM499 0h-121l7 35q-64 -45 -132 -45q-103 0 -162 85q-36 53 -36 124q0 37 8 85l34 191h131
l-38 -213q-6 -35 -6 -57q0 -40 25 -67.5t67 -27.5q62 0 122 60l54 305h131z" />
    <glyph glyph-name="Uhungarumlaut" unicode="&#x170;" horiz-adv-x="752" 
d="M285 700l-60 -337q-15 -86 -15 -115q0 -66 43.5 -102t110.5 -36q93 0 142 58q38 44 58 157l67 375h136l-69 -389q-26 -151 -88 -222q-85 -99 -246 -99q-122 0 -205.5 70t-83.5 195q0 32 24 161l50 284h136zM382 920h140l-120 -160h-90zM602 920h140l-120 -160h-90z" />
    <glyph glyph-name="uhungarumlaut" unicode="&#x171;" horiz-adv-x="615" 
d="M265 710h140l-120 -160h-90zM485 710h140l-120 -160h-90zM499 0h-121l7 35q-64 -45 -132 -45q-103 0 -162 85q-36 53 -36 124q0 37 8 85l34 191h131l-38 -213q-6 -35 -6 -57q0 -40 25 -67.5t67 -27.5q62 0 122 60l54 305h131z" />
    <glyph glyph-name="Uogonek" unicode="&#x172;" horiz-adv-x="752" 
d="M285 700l-60 -337q-15 -86 -15 -115q0 -66 43.5 -102t110.5 -36q93 0 142 58q38 44 58 157l67 375h136l-69 -389q-26 -151 -88 -222q-48 -55 -122 -81q-31 -37 -31 -71q0 -18 11 -30t29 -12q13 0 25 4l15 -109q-20 -10 -65 -10q-61 0 -98 34.5t-37 85.5q0 49 24 90
q-121 1 -203.5 70.5t-82.5 194.5q0 32 24 161l50 284h136z" />
    <glyph glyph-name="uogonek" unicode="&#x173;" horiz-adv-x="615" 
d="M499 0q-25 -36 -25 -63q0 -18 11 -30t29 -12q13 0 25 4l15 -109q-20 -10 -65 -10q-61 0 -98 34.5t-37 85.5q0 45 20 85l11 50q-64 -45 -132 -45q-103 0 -162 85q-36 53 -36 124q0 37 8 85l34 191h131l-38 -213q-6 -35 -6 -57q0 -40 25 -67.5t67 -27.5q62 0 122 60l54 305
h131z" />
    <glyph glyph-name="Wcircumflex" unicode="&#x174;" horiz-adv-x="984" 
d="M201 0l-111 700h131l70 -436l235 436h95l74 -431l219 431h145l-356 -700h-95l-74 440l-238 -440h-95zM681 920l70 -160h-85l-65 90l-95 -90h-95l130 160h140z" />
    <glyph glyph-name="wcircumflex" unicode="&#x175;" horiz-adv-x="849" 
d="M55 475h125l70 -274l168 274h90l68 -268l163 268h140l-286 -475h-90l-68 274l-169 -274h-90zM564 710l70 -160h-85l-65 90l-95 -90h-95l130 160h140z" />
    <glyph glyph-name="Ycircumflex" unicode="&#x176;" horiz-adv-x="634" 
d="M708 700l-309 -385l-56 -315h-136l56 314l-173 386h143l110 -247l196 247h169zM487 920l70 -160h-85l-65 90l-95 -90h-95l130 160h140z" />
    <glyph glyph-name="ycircumflex" unicode="&#x177;" horiz-adv-x="575" 
d="M458 475h147l-458 -715h-147l185 288l-140 427h133l94 -294zM427 710l70 -160h-85l-65 90l-95 -90h-95l130 160h140z" />
    <glyph glyph-name="Ydieresis" unicode="&#x178;" horiz-adv-x="634" 
d="M708 700l-309 -385l-56 -315h-136l56 314l-173 386h143l110 -247l196 247h169zM223 842q0 33 23.5 55.5t56.5 22.5t56.5 -22.5t23.5 -55.5t-23.5 -55.5t-56.5 -22.5t-56.5 22.5t-23.5 55.5zM433 842q0 33 23.5 55.5t56.5 22.5t56.5 -22.5t23.5 -55.5t-23.5 -55.5
t-56.5 -22.5t-56.5 22.5t-23.5 55.5z" />
    <glyph glyph-name="Zacute" unicode="&#x179;" horiz-adv-x="625" 
d="M631 620l-417 -500h352l-21 -120h-540l14 80l414 500h-295l21 120h486zM417 920h140l-120 -160h-90z" />
    <glyph glyph-name="zacute" unicode="&#x17a;" horiz-adv-x="523" 
d="M503 475l-14 -80l-277 -285h237l-19 -110h-430l14 80l272 285h-202l20 110h399zM332 710h140l-120 -160h-90z" />
    <glyph glyph-name="Zdotaccent" unicode="&#x17b;" horiz-adv-x="625" 
d="M631 620l-417 -500h352l-21 -120h-540l14 80l414 500h-295l21 120h486zM337 857q0 35 25 59t60 24t60 -24t25 -59t-25 -59t-60 -24t-60 24t-25 59z" />
    <glyph glyph-name="zdotaccent" unicode="&#x17c;" horiz-adv-x="523" 
d="M503 475l-14 -80l-277 -285h237l-19 -110h-430l14 80l272 285h-202l20 110h399zM253 647q0 35 25 59t60 24t60 -24t25 -59t-25 -59t-60 -24t-60 24t-25 59z" />
    <glyph glyph-name="Zcaron" unicode="&#x17d;" horiz-adv-x="625" 
d="M631 620l-417 -500h352l-21 -120h-540l14 80l414 500h-295l21 120h486zM348 760l-70 160h85l65 -90l95 90h95l-130 -160h-140z" />
    <glyph glyph-name="zcaron" unicode="&#x17e;" horiz-adv-x="523" 
d="M245 550l-70 160h85l65 -90l95 90h95l-130 -160h-140zM503 475l-14 -80l-277 -285h237l-19 -110h-430l14 80l272 285h-202l20 110h399z" />
    <glyph glyph-name="longs" unicode="&#x17f;" horiz-adv-x="417" 
d="M114 475l8 45q14 81 44 121q66 89 194 89q71 0 127 -30l-51 -102q-34 17 -74 17q-54 0 -82 -31q-19 -21 -27 -64l-92 -520h-131z" />
    <glyph glyph-name="uni018F" unicode="&#x18f;" horiz-adv-x="736" 
d="M576 277h-388q9 -76 63.5 -121.5t126.5 -45.5q68 0 121.5 43.5t76.5 123.5zM165 515l-66 106q122 89 263 89q162 0 263 -98.5t101 -250.5q0 -153 -101.5 -262t-246.5 -109q-136 0 -232 90.5t-96 229.5q0 48 11 87h527q-7 83 -66.5 138t-159.5 55q-107 0 -197 -75z" />
    <glyph glyph-name="florin" unicode="&#x192;" horiz-adv-x="526" 
d="M-68 -229l33 108q36 -14 66 -14q91 0 120 93q6 19 11.5 45.5t9.5 48t9.5 59.5t7.5 57t7.5 66t7.5 61h-160l20 110h154q15 99 27 138q54 177 243 177q52 0 99 -21l-33 -108q-36 14 -66 14q-91 0 -120 -93q-12 -35 -24 -107h170l-20 -110h-166q-4 -30 -12 -100.5
t-12.5 -108t-13 -84.5t-16.5 -75q-54 -177 -243 -177q-52 0 -99 21z" />
    <glyph glyph-name="uni01B5" unicode="&#x1b5;" horiz-adv-x="625" 
d="M141 435h172l120 145h-295l21 120h486l-14 -80l-155 -185h95l-21 -120h-174l-162 -195h352l-21 -120h-540l14 80l194 235h-93z" />
    <glyph glyph-name="uni01B6" unicode="&#x1b6;" horiz-adv-x="523" 
d="M87 305h142l57 60h-202l20 110h399l-14 -80l-88 -90h56l-20 -110h-143l-82 -85h237l-19 -110h-430l14 80l110 115h-57z" />
    <glyph glyph-name="Aringacute" unicode="&#x1fa;" horiz-adv-x="699" 
d="M349 850q0 46 32 78t78 32t78 -32t32 -78t-32 -78t-78 -32t-78 32t-32 78zM429 850q0 -13 8.5 -21.5t21.5 -8.5t21.5 8.5t8.5 21.5t-8.5 21.5t-21.5 8.5t-21.5 -8.5t-8.5 -21.5zM500 1150h140l-120 -160h-90zM113 0h-153l424 700h95l185 -700h-135l-41 155h-281zM403 477
l-123 -202h176z" />
    <glyph glyph-name="aringacute" unicode="&#x1fb;" horiz-adv-x="611" 
d="M250 640q0 46 32 78t78 32t78 -32t32 -78t-32 -78t-78 -32t-78 32t-32 78zM330 640q0 -13 8.5 -21.5t21.5 -8.5t21.5 8.5t8.5 21.5t-8.5 21.5t-21.5 8.5t-21.5 -8.5t-8.5 -21.5zM401 940h140l-120 -160h-90zM459 475h120l-84 -475h-119l5 32q-54 -42 -132 -42
q-88 0 -150.5 63t-62.5 161q0 70 34.5 135t94.5 100q63 36 131 36q81 0 155 -55zM393 162l27 155q-45 47 -115 47q-57 0 -98 -41.5t-41 -102.5q0 -49 30 -80t81 -31q66 0 116 53z" />
    <glyph glyph-name="AEacute" unicode="&#x1fc;" horiz-adv-x="969" 
d="M599 920h140l-120 -160h-90zM126 0h-166l544 700h500l-21 -120h-284l-26 -145h214l-21 -120h-214l-35 -195h294l-21 -120h-430l27 155h-241zM339 275h169l50 279z" />
    <glyph glyph-name="aeacute" unicode="&#x1fd;" horiz-adv-x="921" 
d="M531 710h140l-120 -160h-90zM796 132l54 -88q-76 -54 -177 -54q-102 0 -178 69l-10 -59h-109l5 32q-54 -42 -132 -42q-88 0 -150.5 63t-62.5 161q0 70 34.5 135t94.5 100q63 36 131 36q81 0 155 -55l8 45h110l-4 -21q48 31 107 31q86 0 150 -64t64 -156q0 -31 -8 -61
h-345q4 -47 41 -78t95 -31q67 0 127 37zM393 162l27 155q-45 47 -115 47q-57 0 -98 -41.5t-41 -102.5q0 -49 30 -80t81 -31q66 0 116 53zM548 296h215q-3 37 -31 60.5t-67 23.5t-71 -22.5t-46 -61.5z" />
    <glyph glyph-name="Oslashacute" unicode="&#x1fe;" horiz-adv-x="800" 
d="M481 920h140l-120 -160h-90zM176 -10h-163l113 124q-76 93 -76 216q0 152 113.5 266t273.5 114q99 0 184 -48l45 48h163l-115 -125q76 -93 76 -215q0 -152 -113.5 -266t-273.5 -114q-101 0 -184 47zM185 330q0 -65 30 -117l320 355q-46 22 -98 22q-101 0 -176.5 -78.5
t-75.5 -181.5zM655 370q0 65 -31 116l-319 -355q43 -21 98 -21q101 0 176.5 78.5t75.5 181.5z" />
    <glyph glyph-name="oslashacute" unicode="&#x1ff;" horiz-adv-x="585" 
d="M346 710h140l-120 -160h-90zM160 -10h-152l78 92q-50 63 -50 145q0 107 79 182.5t188 75.5q55 0 105 -22l18 22h153l-79 -93q50 -65 50 -144q0 -107 -79 -182.5t-188 -75.5q-55 0 -105 21zM166 227q0 -24 7 -42l150 178q-14 2 -20 2q-56 0 -96.5 -41t-40.5 -97zM420 248
q0 18 -7 41l-150 -178q6 -1 20 -1q56 0 96.5 41t40.5 97z" />
    <glyph glyph-name="Scommaaccent" unicode="&#x218;" horiz-adv-x="552" 
d="M163 -60h140l-120 -160h-90zM0 106l93 85q64 -81 161 -81q43 0 78.5 25.5t35.5 68.5q0 34 -27 60.5t-65 46.5t-76 42.5t-65 61.5t-27 91q0 88 68.5 146t168.5 58q130 0 217 -90l-89 -88q-49 58 -123 58q-42 0 -75.5 -23.5t-33.5 -61.5q0 -25 27 -47t65 -42t76 -45
t65 -67.5t27 -98.5q0 -91 -72.5 -153t-174.5 -62q-153 0 -254 116z" />
    <glyph glyph-name="scommaaccent" unicode="&#x219;" horiz-adv-x="450" 
d="M120 -60h140l-120 -160h-90zM0 55l67 93q63 -48 126 -48q28 0 50 10.5t22 30.5q0 6 -2.5 11.5t-8.5 11t-12 9.5t-16.5 9.5t-17.5 8.5t-21 9.5t-21 9.5q-96 44 -96 125q0 68 60 109t135 41q86 0 160 -44l-55 -94q-49 28 -98 28q-14 0 -28.5 -2.5t-29 -12t-14.5 -25.5
q0 -14 12 -22.5t42.5 -20.5t42.5 -18q98 -49 98 -132q0 -69 -59.5 -110.5t-143.5 -41.5q-112 0 -192 65z" />
    <glyph glyph-name="uni021A" unicode="&#x21a;" horiz-adv-x="564" 
d="M111 700h506l-21 -120h-185l-103 -580h-136l103 580h-185zM162 -60h140l-120 -160h-90z" />
    <glyph glyph-name="uni021B" unicode="&#x21b;" horiz-adv-x="496" 
d="M210 -60h140l-120 -160h-90zM395 110l21 -110q-30 -10 -86 -10q-82 0 -136 49t-54 129q0 29 9 79l21 118h-135l20 110h135l24 135h131l-24 -135h165l-20 -110h-165l-24 -134q-7 -35 -7 -54q0 -38 18.5 -55t58.5 -17q28 0 48 5z" />
    <glyph glyph-name="uni0237" unicode="&#x237;" horiz-adv-x="319" 
d="M-95 -242l28 116q16 -4 35 -4q39 0 65 23q24 22 31 62l92 520h131l-89 -503q-16 -91 -40 -129q-56 -93 -187 -93q-37 0 -66 8z" />
    <glyph glyph-name="uni0259" unicode="&#x259;" horiz-adv-x="536" 
d="M126 343l-54 88q75 54 178 54q106 0 178.5 -66.5t72.5 -173.5q0 -103 -71.5 -179t-177.5 -76q-93 0 -154.5 63t-61.5 157q0 31 8 61h337q-4 47 -39 78t-93 31q-63 0 -123 -37zM366 179h-207q3 -37 29 -60.5t65 -23.5t69 22.5t44 61.5z" />
    <glyph glyph-name="circumflex" unicode="&#x2c6;" horiz-adv-x="480" 
d="M340 710l70 -160h-85l-65 90l-95 -90h-95l130 160h140z" />
    <glyph glyph-name="caron" unicode="&#x2c7;" horiz-adv-x="480" 
d="M140 550l-70 160h85l65 -90l95 90h95l-130 -160h-140z" />
    <glyph glyph-name="uni02C9" unicode="&#x2c9;" horiz-adv-x="500" 
d="M70 680h320v-100h-320v100z" />
    <glyph glyph-name="breve" unicode="&#x2d8;" horiz-adv-x="440" 
d="M265 710h105q0 -62 -44 -106t-106 -44t-106 44t-44 106h105q0 -19 13 -32t32 -13t32 13t13 32z" />
    <glyph glyph-name="dotaccent" unicode="&#x2d9;" horiz-adv-x="310" 
d="M70 647q0 35 25 59t60 24t60 -24t25 -59t-25 -59t-60 -24t-60 24t-25 59z" />
    <glyph glyph-name="ring" unicode="&#x2da;" horiz-adv-x="360" 
d="M70 640q0 46 32 78t78 32t78 -32t32 -78t-32 -78t-78 -32t-78 32t-32 78zM150 640q0 -13 8.5 -21.5t21.5 -8.5t21.5 8.5t8.5 21.5t-8.5 21.5t-21.5 8.5t-21.5 -8.5t-8.5 -21.5z" />
    <glyph glyph-name="ogonek" unicode="&#x2db;" horiz-adv-x="340" 
d="M108 10h115q-33 -40 -33 -73q0 -18 11 -30t29 -12q13 0 25 4l15 -109q-20 -10 -65 -10q-61 0 -98 34.5t-37 85.5q0 57 38 110z" />
    <glyph glyph-name="tilde" unicode="&#x2dc;" horiz-adv-x="520" 
d="M370 710l80 -16q0 -57 -29.5 -95.5t-81.5 -38.5q-32 0 -81 25t-68 25q-35 0 -40 -50l-80 16q0 57 29.5 95.5t81.5 38.5q32 0 81 -25t68 -25q35 0 40 50z" />
    <glyph glyph-name="hungarumlaut" unicode="&#x2dd;" horiz-adv-x="570" 
d="M140 710h140l-120 -160h-90zM360 710h140l-120 -160h-90z" />
    <glyph glyph-name="uni0394" unicode="&#x394;" 
d="M422 700l128 -630l-12 -70h-568l12 70l350 630h90zM349 506l-219 -396h300z" />
    <glyph glyph-name="uni03A9" unicode="&#x3a9;" horiz-adv-x="750" 
d="M650 120h70l-21 -120h-278l13 80q69 30 122.5 112t53.5 174q0 94 -58.5 159t-153.5 65q-105 0 -175 -80.5t-70 -182.5q0 -132 89 -247l-13 -80h-259l21 120h85q-24 39 -38.5 99.5t-14.5 110.5q0 153 110.5 266.5t267.5 113.5q148 0 243.5 -96t95.5 -245q0 -124 -90 -249z
" />
    <glyph glyph-name="uni03BC" unicode="&#x3bc;" horiz-adv-x="632" 
d="M-12 -235l126 710h131l-38 -213q-6 -35 -6 -57q0 -40 25 -67.5t67 -27.5q62 0 122 60l54 305h131l-84 -475h-121l7 35q-65 -45 -128 -45q-59 0 -109 34l-46 -259h-131z" />
    <glyph glyph-name="pi" unicode="&#x3c0;" horiz-adv-x="581" 
d="M84 0l61 349q-35 -4 -66 -37l-69 87q39 40 85 55.5t111 15.5h400l-19 -110h-100l-36 -207q-5 -27 -5 -42q0 -29 20 -53l-96 -68q-46 51 -46 108q0 23 7 63l35 199h-98l-63 -360h-121z" />
    <glyph glyph-name="Wgrave" unicode="&#x1e80;" horiz-adv-x="984" 
d="M201 0l-111 700h131l70 -436l235 436h95l74 -431l219 431h145l-356 -700h-95l-74 440l-238 -440h-95zM420 920h140l70 -160h-90z" />
    <glyph glyph-name="wgrave" unicode="&#x1e81;" horiz-adv-x="849" 
d="M55 475h125l70 -274l168 274h90l68 -268l163 268h140l-286 -475h-90l-68 274l-169 -274h-90zM314 710h140l70 -160h-90z" />
    <glyph glyph-name="Wacute" unicode="&#x1e82;" horiz-adv-x="984" 
d="M201 0l-111 700h131l70 -436l235 436h95l74 -431l219 431h145l-356 -700h-95l-74 440l-238 -440h-95zM610 920h140l-120 -160h-90z" />
    <glyph glyph-name="wacute" unicode="&#x1e83;" horiz-adv-x="849" 
d="M55 475h125l70 -274l168 274h90l68 -268l163 268h140l-286 -475h-90l-68 274l-169 -274h-90zM510 710h140l-120 -160h-90z" />
    <glyph glyph-name="Wdieresis" unicode="&#x1e84;" horiz-adv-x="984" 
d="M201 0l-111 700h131l70 -436l235 436h95l74 -431l219 431h145l-356 -700h-95l-74 440l-238 -440h-95zM410 842q0 33 23.5 55.5t56.5 22.5t56.5 -22.5t23.5 -55.5t-23.5 -55.5t-56.5 -22.5t-56.5 22.5t-23.5 55.5zM620 842q0 33 23.5 55.5t56.5 22.5t56.5 -22.5
t23.5 -55.5t-23.5 -55.5t-56.5 -22.5t-56.5 22.5t-23.5 55.5z" />
    <glyph glyph-name="wdieresis" unicode="&#x1e85;" horiz-adv-x="849" 
d="M55 475h125l70 -274l168 274h90l68 -268l163 268h140l-286 -475h-90l-68 274l-169 -274h-90zM300 632q0 33 23.5 55.5t56.5 22.5t56.5 -22.5t23.5 -55.5t-23.5 -55.5t-56.5 -22.5t-56.5 22.5t-23.5 55.5zM510 632q0 33 23.5 55.5t56.5 22.5t56.5 -22.5t23.5 -55.5
t-23.5 -55.5t-56.5 -22.5t-56.5 22.5t-23.5 55.5z" />
    <glyph glyph-name="uni1E8A" unicode="&#x1e8a;" horiz-adv-x="689" 
d="M350 857q0 35 25 59t60 24t60 -24t25 -59t-25 -59t-60 -24t-60 24t-25 59zM495 0l-131 276l-225 -276h-169l319 387l-150 313h145l100 -212l171 212h169l-266 -323l182 -377h-145z" />
    <glyph glyph-name="uni1E8B" unicode="&#x1e8b;" horiz-adv-x="566" 
d="M363 0l-81 164l-138 -164h-169l229 255l-115 220h139l67 -135l112 135h164l-199 -224l135 -251h-144zM270 647q0 35 25 59t60 24t60 -24t25 -59t-25 -59t-60 -24t-60 24t-25 59z" />
    <glyph glyph-name="Ygrave" unicode="&#x1ef2;" horiz-adv-x="634" 
d="M708 700l-309 -385l-56 -315h-136l56 314l-173 386h143l110 -247l196 247h169zM230 920h140l70 -160h-90z" />
    <glyph glyph-name="ygrave" unicode="&#x1ef3;" horiz-adv-x="575" 
d="M458 475h147l-458 -715h-147l185 288l-140 427h133l94 -294zM170 710h140l70 -160h-90z" />
    <glyph glyph-name="endash" unicode="&#x2013;" horiz-adv-x="520" 
d="M29 315h491l-19 -110h-491z" />
    <glyph glyph-name="emdash" unicode="&#x2014;" horiz-adv-x="820" 
d="M29 315h791l-19 -110h-791z" />
    <glyph glyph-name="quoteleft" unicode="&#x2018;" horiz-adv-x="315" 
d="M230 410h-145l155 290h95z" />
    <glyph glyph-name="quoteright" unicode="&#x2019;" horiz-adv-x="315" 
d="M200 700h145l-155 -290h-95z" />
    <glyph glyph-name="quotesinglbase" unicode="&#x201a;" horiz-adv-x="315" 
d="M95 150h145l-155 -290h-95z" />
    <glyph glyph-name="quotedblleft" unicode="&#x201c;" horiz-adv-x="565" 
d="M480 410h-145l155 290h95zM230 410h-145l155 290h95z" />
    <glyph glyph-name="quotedblright" unicode="&#x201d;" horiz-adv-x="565" 
d="M200 700h145l-155 -290h-95zM450 700h145l-155 -290h-95z" />
    <glyph glyph-name="quotedblbase" unicode="&#x201e;" horiz-adv-x="565" 
d="M95 150h145l-155 -290h-95zM345 150h145l-155 -290h-95z" />
    <glyph glyph-name="dagger" unicode="&#x2020;" horiz-adv-x="550" 
d="M355 355l-98 -555h-121l98 555h-170l20 110h170l42 235h121l-42 -235h170l-20 -110h-170z" />
    <glyph glyph-name="daggerdbl" unicode="&#x2021;" horiz-adv-x="550" 
d="M208 206l26 149h-170l20 110h170l42 235h121l-42 -235h170l-20 -110h-170l-26 -149h170l-20 -110h-170l-52 -296h-121l52 296h-170l20 110h170z" />
    <glyph glyph-name="bullet" unicode="&#x2022;" 
d="M75 242q0 91 64.5 155.5t155.5 64.5t155.5 -64.5t64.5 -155.5t-64.5 -155.5t-155.5 -64.5t-155.5 64.5t-64.5 155.5z" />
    <glyph glyph-name="ellipsis" unicode="&#x2026;" horiz-adv-x="995" 
d="M80 75q0 37 25 61.5t62 24.5t62.5 -24.5t25.5 -61.5q0 -36 -25.5 -60.5t-62.5 -24.5t-62 24t-25 61zM390 75q0 37 25 61.5t62 24.5t62.5 -24.5t25.5 -61.5q0 -36 -25.5 -60.5t-62.5 -24.5t-62 24t-25 61zM700 75q0 37 25 61.5t62 24.5t62.5 -24.5t25.5 -61.5
q0 -36 -25.5 -60.5t-62.5 -24.5t-62 24t-25 61z" />
    <glyph glyph-name="perthousand" unicode="&#x2030;" horiz-adv-x="1205" 
d="M1180 182q0 -82 -58 -137t-139 -55q-78 0 -130 52q-54 -52 -133 -52q-78 0 -132 51.5t-54 126.5q0 82 58 137t139 55q77 0 129 -52q57 52 134 52q78 0 132 -51.5t54 -126.5zM443 532q0 -82 -58 -137t-139 -55q-78 0 -132 51.5t-54 126.5q0 82 58 137t139 55
q78 0 132 -51.5t54 -126.5zM284 0h-120l529 700h120zM180 518q0 -29 18.5 -48.5t47.5 -19.5q32 0 54.5 23t22.5 59q0 29 -18.5 48.5t-47.5 19.5q-32 0 -54.5 -23t-22.5 -59zM654 168q0 -29 18.5 -48.5t47.5 -19.5q32 0 54.5 23t22.5 59q0 29 -18.5 48.5t-47.5 19.5
q-32 0 -54.5 -23t-22.5 -59zM917 168q0 -29 18.5 -48.5t47.5 -19.5q32 0 54.5 23t22.5 59q0 29 -18.5 48.5t-47.5 19.5q-32 0 -54.5 -23t-22.5 -59z" />
    <glyph glyph-name="guilsinglleft" unicode="&#x2039;" horiz-adv-x="385" 
d="M279 57h-130l-94 155l12 70l133 155h147l-176 -204z" />
    <glyph glyph-name="guilsinglright" unicode="&#x203a;" horiz-adv-x="385" 
d="M108 437h130l94 -155l-12 -70l-133 -155h-147l176 204z" />
    <glyph glyph-name="fraction" unicode="&#x2044;" horiz-adv-x="659" 
d="M125 0h-120l529 700h120z" />
    <glyph glyph-name="uni2070" unicode="&#x2070;" horiz-adv-x="336" 
d="M261 565q0 55 -32 55q-27 0 -41.5 -47.5t-14.5 -97.5q0 -55 31 -55q27 0 42 47.5t15 97.5zM361 565q0 -43 -8 -82.5t-25 -75t-49 -56.5t-75 -21q-57 0 -94 37.5t-37 107.5q0 60 13.5 110t50 87.5t92.5 37.5q58 0 95 -37.5t37 -107.5z" />
    <glyph glyph-name="uni2074" unicode="&#x2074;" horiz-adv-x="359" 
d="M54 460l247 240h60l-37 -215h65l-13 -75h-66l-12 -70h-91l12 70h-174zM185 485h48l10 60z" />
    <glyph glyph-name="uni2075" unicode="&#x2075;" horiz-adv-x="298" 
d="M40 409l83 37q17 -31 47 -31q19 0 33 13t14 33q0 18 -13 31.5t-35 13.5q-20 0 -35 -11l-52 18l59 187h207l-14 -85h-118l-10 -32q48 -7 79 -41.5t31 -80.5q0 -54 -39.5 -92.5t-104.5 -38.5q-89 0 -132 79z" />
    <glyph glyph-name="uni2076" unicode="&#x2076;" horiz-adv-x="311" 
d="M327 700l-94 -120q46 -8 74.5 -42.5t28.5 -78.5q0 -54 -40.5 -91.5t-100.5 -37.5q-58 0 -96.5 35.5t-38.5 88.5q0 51 52 116l99 130h116zM168 494q-17 -20 -17 -40q0 -16 12.5 -27.5t30.5 -11.5q21 0 34 12.5t13 32.5q0 17 -12 28.5t-32 11.5q-15 0 -29 -6z" />
    <glyph glyph-name="uni2077" unicode="&#x2077;" horiz-adv-x="306" 
d="M163 340h-107l168 270h-122l15 90h250l-9 -50z" />
    <glyph glyph-name="uni2078" unicode="&#x2078;" horiz-adv-x="320" 
d="M346 461q0 -54 -41.5 -93t-101.5 -39t-98.5 36t-38.5 89q0 63 56 97q-11 19 -11 44q0 47 34.5 81t89.5 34q54 0 87.5 -33t33.5 -78q0 -41 -35 -71q25 -28 25 -67zM249 461q0 16 -11.5 27.5t-28.5 11.5q-20 0 -33 -13.5t-13 -32.5q0 -17 11.5 -28t28.5 -11q19 0 32.5 14
t13.5 32zM206 594q0 -11 7.5 -18.5t18.5 -7.5q13 0 21 9t8 21t-7 19.5t-19 7.5q-13 0 -21 -9t-8 -22z" />
    <glyph glyph-name="uni2079" unicode="&#x2079;" horiz-adv-x="316" 
d="M85 340l94 120q-46 8 -74.5 42.5t-28.5 78.5q0 54 40.5 91.5t100.5 37.5q58 0 96.5 -35.5t38.5 -88.5q0 -51 -52 -116l-99 -130h-116zM244 546q17 20 17 40q0 16 -12.5 27.5t-30.5 11.5q-21 0 -34 -12.5t-13 -32.5q0 -17 12 -28.5t32 -11.5q15 0 29 6z" />
    <glyph glyph-name="uni2080" unicode="&#x2080;" horiz-adv-x="336" 
d="M201 225q0 55 -32 55q-27 0 -41.5 -47.5t-14.5 -97.5q0 -55 31 -55q27 0 42 47.5t15 97.5zM301 225q0 -43 -8 -82.5t-25 -75t-49 -56.5t-75 -21q-57 0 -94 37.5t-37 107.5q0 60 13.5 110t50 87.5t92.5 37.5q58 0 95 -37.5t37 -107.5z" />
    <glyph glyph-name="uni2081" unicode="&#x2081;" horiz-adv-x="260" 
d="M26 201l16 95l134 64h60l-63 -360h-101l42 241z" />
    <glyph glyph-name="uni2082" unicode="&#x2082;" horiz-adv-x="318" 
d="M114 247l-86 27q14 47 49 71.5t80 24.5q54 0 92.5 -34t38.5 -85q0 -58 -69 -122l-42 -39h98l-16 -90h-264l9 51l147 140q37 35 37 59q0 12 -9.5 21t-22.5 9q-30 0 -42 -33z" />
    <glyph glyph-name="uni2083" unicode="&#x2083;" horiz-adv-x="295" 
d="M256 121q0 -56 -40 -93.5t-107 -37.5q-77 0 -119 58l69 52q18 -25 48 -25q21 0 35 13t14 33q0 18 -13 30t-35 12q-18 0 -39 -8l10 52l60 68h-108l15 85h224l-9 -50l-70 -86q65 -29 65 -103z" />
    <glyph glyph-name="uni2084" unicode="&#x2084;" horiz-adv-x="359" 
d="M-6 120l247 240h60l-37 -215h65l-13 -75h-66l-12 -70h-91l12 70h-174zM125 145h48l10 60z" />
    <glyph glyph-name="uni2085" unicode="&#x2085;" horiz-adv-x="298" 
d="M-18 79l83 37q17 -31 47 -31q19 0 33 13t14 33q0 18 -13 31.5t-35 13.5q-20 0 -35 -11l-52 18l59 187h207l-14 -85h-118l-10 -32q48 -7 79 -41.5t31 -80.5q0 -54 -39.5 -92.5t-104.5 -38.5q-89 0 -132 79z" />
    <glyph glyph-name="uni2086" unicode="&#x2086;" horiz-adv-x="311" 
d="M267 360l-94 -120q46 -8 74.5 -42.5t28.5 -78.5q0 -54 -40.5 -91.5t-100.5 -37.5q-58 0 -96.5 35.5t-38.5 88.5q0 51 52 116l99 130h116zM108 154q-17 -20 -17 -40q0 -16 12.5 -27.5t30.5 -11.5q21 0 34 12.5t13 32.5q0 17 -12 28.5t-32 11.5q-15 0 -29 -6z" />
    <glyph glyph-name="uni2087" unicode="&#x2087;" horiz-adv-x="306" 
d="M102 0h-107l168 270h-122l15 90h250l-9 -50z" />
    <glyph glyph-name="uni2088" unicode="&#x2088;" horiz-adv-x="320" 
d="M285 122q0 -54 -41.5 -93t-101.5 -39t-98.5 36t-38.5 89q0 63 56 97q-11 19 -11 44q0 47 34.5 81t89.5 34q54 0 87.5 -33t33.5 -78q0 -41 -35 -71q25 -28 25 -67zM188 122q0 16 -11.5 27.5t-28.5 11.5q-20 0 -33 -13.5t-13 -32.5q0 -17 11.5 -28t28.5 -11q19 0 32.5 14
t13.5 32zM145 255q0 -11 7.5 -18.5t18.5 -7.5q13 0 21 9t8 21t-7 19.5t-19 7.5q-13 0 -21 -9t-8 -22z" />
    <glyph glyph-name="uni2089" unicode="&#x2089;" horiz-adv-x="316" 
d="M24 0l94 120q-46 8 -74.5 42.5t-28.5 78.5q0 54 40.5 91.5t100.5 37.5q58 0 96.5 -35.5t38.5 -88.5q0 -51 -52 -116l-99 -130h-116zM183 206q17 20 17 40q0 16 -12.5 27.5t-30.5 11.5q-21 0 -34 -12.5t-13 -32.5q0 -17 12 -28.5t32 -11.5q16 0 29 6z" />
    <glyph glyph-name="Euro" unicode="&#x20ac;" horiz-adv-x="671" 
d="M461 215h-225q25 -50 70 -77.5t98 -27.5q86 0 157 80l89 -84q-43 -52 -109 -84t-139 -32q-106 0 -189 61t-116 164h-107l20 110h70v5q0 15 2 45h-63l20 110h71q42 101 128.5 163t193.5 62q163 0 259 -123l-87 -75q-68 78 -165 78q-55 0 -103.5 -28t-80.5 -77h255
l-20 -110h-277q-3 -23 -3 -45v-5h271z" />
    <glyph glyph-name="trademark" unicode="&#x2122;" horiz-adv-x="880" 
d="M100 700h287v-80h-100v-303h-87v303h-100v80zM490 700l149 -217l148 217h53v-383h-89v183l-91 -131h-44l-91 131v-183h-89v383h54z" />
    <glyph glyph-name="Omega" unicode="&#x2126;" horiz-adv-x="750" 
d="M650 120h70l-21 -120h-278l13 80q69 30 122.5 112t53.5 174q0 94 -58.5 159t-153.5 65q-105 0 -175 -80.5t-70 -182.5q0 -132 89 -247l-13 -80h-259l21 120h85q-24 39 -38.5 99.5t-14.5 110.5q0 153 110.5 266.5t267.5 113.5q148 0 243.5 -96t95.5 -245q0 -124 -90 -249z
" />
    <glyph glyph-name="arrowleft" unicode="&#x2190;" horiz-adv-x="711" 
d="M349 35h-142l-153 190l12 70l226 190h170l-202 -170h411l-19 -110h-441z" />
    <glyph glyph-name="arrowright" unicode="&#x2192;" horiz-adv-x="711" 
d="M362 485h142l153 -190l-12 -70l-226 -190h-170l202 170h-401l19 110h431z" />
    <glyph glyph-name="uni2196" unicode="&#x2196;" horiz-adv-x="597" 
d="M151 485h266l91 -110h-248l253 -305l-83 -70l-251 303l-43 -243l-92 111l48 264z" />
    <glyph glyph-name="uni2197" unicode="&#x2197;" horiz-adv-x="597" 
d="M531 170l-131 -112l41 231l-342 -289l-71 83l345 292h-231l129 110h266l41 -50z" />
    <glyph glyph-name="uni2198" unicode="&#x2198;" horiz-adv-x="597" 
d="M450 0h-266l-91 110h248l-253 305l83 70l251 -303l43 243l92 -111l-48 -264z" />
    <glyph glyph-name="uni2199" unicode="&#x2199;" horiz-adv-x="597" 
d="M69 315l131 112l-41 -231l342 289l71 -83l-345 -292h231l-129 -110h-266l-41 50z" />
    <glyph glyph-name="partialdiff" unicode="&#x2202;" horiz-adv-x="588" 
d="M213 710h137l134 -245q36 -66 52 -113.5t16 -103.5q0 -106 -79 -182t-187 -76q-107 0 -178.5 68.5t-71.5 168.5q0 107 79.5 182.5t188.5 75.5q20 0 32 -2zM405 336q-38 29 -92 29q-61 0 -104 -39.5t-43 -98.5q0 -51 34.5 -84t85.5 -33q58 0 98 43t40 101q0 46 -19 82z
" />
    <glyph glyph-name="Delta" unicode="&#x2206;" 
d="M422 700l128 -630l-12 -70h-568l12 70l350 630h90zM349 506l-219 -396h300z" />
    <glyph glyph-name="product" unicode="&#x220f;" 
d="M309 0l105 590h-118l-105 -590h-121l105 590h-100l19 110h560l-19 -110h-100l-105 -590h-121z" />
    <glyph glyph-name="summation" unicode="&#x2211;" horiz-adv-x="600" 
d="M489 590h-212l154 -193l-12 -70l-225 -217h220l18 100h121l-37 -210h-551l12 70l315 305l-205 255l12 70h531l-37 -210h-122z" />
    <glyph glyph-name="minus" unicode="&#x2212;" horiz-adv-x="570" 
d="M71 335h461l-19 -110h-461z" />
    <glyph glyph-name="uni2215" unicode="&#x2215;" horiz-adv-x="659" 
d="M125 0h-120l529 700h120z" />
    <glyph glyph-name="uni2219" unicode="&#x2219;" horiz-adv-x="375" 
d="M95 238q0 37 25 61.5t62 24.5t62.5 -24.5t25.5 -61.5q0 -36 -25.5 -60.5t-62.5 -24.5t-62 24t-25 61z" />
    <glyph glyph-name="radical" unicode="&#x221a;" horiz-adv-x="610" 
d="M44 475h167l71 -290l284 515h124l-384 -700h-90l-91 365h-100z" />
    <glyph glyph-name="infinity" unicode="&#x221e;" horiz-adv-x="780" 
d="M223 70q-79 0 -137 54.5t-58 140.5q0 94 63.5 156.5t151.5 62.5q99 0 157 -96q71 96 169 96q79 0 137 -54.5t58 -140.5q0 -94 -63.5 -156.5t-151.5 -62.5q-100 0 -157 95q-70 -95 -169 -95zM243 374q-46 0 -75.5 -32.5t-29.5 -76.5q0 -33 21.5 -59t63.5 -26q33 0 58 26
t55 78q-20 44 -41 67t-52 23zM549 180q46 0 75.5 32.5t29.5 76.5q0 33 -21.5 59t-63.5 26q-34 0 -59 -26.5t-55 -78.5q20 -43 41 -66t53 -23z" />
    <glyph glyph-name="integral" unicode="&#x222b;" horiz-adv-x="526" 
d="M-68 -229l33 108q36 -14 66 -14q91 0 120 93q23 74 49 298.5t45 286.5q54 177 243 177q52 0 99 -21l-33 -108q-36 14 -66 14q-91 0 -120 -93q-23 -74 -49 -298.5t-45 -286.5q-54 -177 -243 -177q-52 0 -99 21z" />
    <glyph glyph-name="approxequal" unicode="&#x2248;" horiz-adv-x="570" 
d="M453 260l98 -48q-19 -63 -65 -101t-113 -38q-43 0 -82.5 21t-69 42t-50.5 21q-27 0 -43.5 -19.5t-33.5 -57.5l-98 48q19 63 65 101t113 38q43 0 82.5 -21t69 -42t50.5 -21q27 0 43.5 19.5t33.5 57.5zM492 480l98 -48q-19 -63 -65 -101t-113 -38q-43 0 -82.5 21t-69 42
t-50.5 21q-27 0 -43.5 -19.5t-33.5 -57.5l-98 48q19 63 65 101t113 38q43 0 82.5 -21t69 -42t50.5 -21q27 0 43.5 19.5t33.5 57.5z" />
    <glyph glyph-name="notequal" unicode="&#x2260;" horiz-adv-x="570" 
d="M52 230h134l74 100h-190l19 110h253l82 110h137l-82 -110h71l-19 -110h-134l-74 -100h190l-19 -110h-253l-82 -110h-137l82 110h-71z" />
    <glyph glyph-name="lessequal" unicode="&#x2264;" horiz-adv-x="570" 
d="M522 273l-20 -109l-434 150l12 70l488 151l-22 -122l-226 -70zM36 140h461l-19 -110h-461z" />
    <glyph glyph-name="greaterequal" unicode="&#x2265;" horiz-adv-x="570" 
d="M36 140h461l-19 -110h-461zM86 426l20 109l434 -150l-12 -70l-488 -151l22 122l226 70z" />
    <glyph glyph-name="lozenge" unicode="&#x25ca;" horiz-adv-x="567" 
d="M50 315l12 70l256 315h90l144 -315l-12 -70l-256 -315h-90zM162 334l91 -198l187 229l-91 199z" />
    <glyph glyph-name="uniFB00" unicode="&#xfb00;" horiz-adv-x="873" 
d="M918 717l-38 -109q-24 7 -46 7q-54 0 -82 -31q-19 -21 -27 -64l-8 -45h155l-20 -110h-155l-64 -365h-131l64 365h-270l-64 -365h-131l64 365h-125l20 110h125l8 45q14 81 44 121q31 43 83 66t112 23q36 0 85 -13l-38 -109q-24 7 -46 7q-54 0 -82 -31q-19 -21 -27 -64
l-8 -45h270l8 45q14 81 44 121q31 43 83 66t112 23q36 0 85 -13z" />
    <glyph glyph-name="fi" unicode="&#xfb01;" horiz-adv-x="739" 
d="M517 717l-38 -109q-24 7 -46 7q-54 0 -82 -31q-19 -21 -27 -64l-8 -45h391l-84 -475h-131l64 365h-260l-64 -365h-131l64 365h-125l20 110h125l8 45q14 81 44 121q31 43 83 66t112 23q36 0 85 -13zM587 647q0 35 25 59t60 24t60 -24t25 -59t-25 -59t-60 -24t-60 24
t-25 59z" />
    <glyph glyph-name="fl" unicode="&#xfb02;" horiz-adv-x="739" 
d="M517 717l-38 -109q-24 7 -46 7q-54 0 -82 -31q-19 -21 -27 -64l-8 -45h260l42 235h131l-126 -710h-131l65 365h-261l-64 -365h-131l64 365h-125l20 110h125l8 45q14 81 44 121q31 43 83 66t112 23q36 0 85 -13z" />
    <glyph glyph-name="uniFB03" unicode="&#xfb03;" horiz-adv-x="1140" 
d="M918 717l-38 -109q-24 7 -46 7q-54 0 -82 -31q-19 -21 -27 -64l-8 -45h391l-84 -475h-131l64 365h-260l-64 -365h-131l64 365h-270l-64 -365h-131l64 365h-125l20 110h125l8 45q14 81 44 121q31 43 83 66t112 23q36 0 85 -13l-38 -109q-24 7 -46 7q-54 0 -82 -31
q-19 -21 -27 -64l-8 -45h270l8 45q14 81 44 121q31 43 83 66t112 23q36 0 85 -13zM988 647q0 35 25 59t60 24t60 -24t25 -59t-25 -59t-60 -24t-60 24t-25 59z" />
    <glyph glyph-name="uniFB04" unicode="&#xfb04;" horiz-adv-x="1140" 
d="M893 0l64 365h-260l-64 -365h-131l64 365h-270l-64 -365h-131l64 365h-125l20 110h125l8 45q14 81 44 121q31 43 83 66t112 23q36 0 85 -13l-38 -109q-24 7 -46 7q-54 0 -82 -31q-19 -21 -27 -64l-8 -45h270l8 45q14 81 44 121q31 43 83 66t112 23q36 0 85 -13l-38 -109
q-24 7 -46 7q-54 0 -82 -31q-19 -21 -27 -64l-8 -45h260l42 235h131l-126 -710h-131z" />
    <glyph glyph-name="i.latn_TRK" horiz-adv-x="277" 
d="M114 475h131l-84 -475h-131zM125 647q0 35 25 59t60 24t60 -24t25 -59t-25 -59t-60 -24t-60 24t-25 59z" />
    <glyph glyph-name="zero.numr" horiz-adv-x="336" 
d="M261 565q0 55 -32 55q-27 0 -41.5 -47.5t-14.5 -97.5q0 -55 31 -55q27 0 42 47.5t15 97.5zM361 565q0 -43 -8 -82.5t-25 -75t-49 -56.5t-75 -21q-57 0 -94 37.5t-37 107.5q0 60 13.5 110t50 87.5t92.5 37.5q58 0 95 -37.5t37 -107.5z" />
    <glyph glyph-name="one.numr" horiz-adv-x="260" 
d="M85 541l16 95l134 64h60l-63 -360h-101l42 241z" />
    <glyph glyph-name="two.numr" horiz-adv-x="318" 
d="M174 587l-86 27q14 47 49 71.5t80 24.5q54 0 92.5 -34t38.5 -85q0 -58 -69 -122l-42 -39h98l-16 -90h-264l9 51l147 140q37 35 37 59q0 12 -9.5 21t-22.5 9q-30 0 -42 -33z" />
    <glyph glyph-name="three.numr" horiz-adv-x="295" 
d="M316 461q0 -56 -40 -93.5t-107 -37.5q-77 0 -119 58l69 52q18 -25 48 -25q21 0 35 13t14 33q0 18 -13 30t-35 12q-18 0 -39 -8l10 52l60 68h-108l15 85h224l-9 -50l-70 -86q65 -29 65 -103z" />
    <glyph glyph-name="four.numr" horiz-adv-x="359" 
d="M54 460l247 240h60l-37 -215h65l-13 -75h-66l-12 -70h-91l12 70h-174zM185 485h48l10 60z" />
    <glyph glyph-name="five.numr" horiz-adv-x="298" 
d="M40 409l83 37q17 -31 47 -31q19 0 33 13t14 33q0 18 -13 31.5t-35 13.5q-20 0 -35 -11l-52 18l59 187h207l-14 -85h-118l-10 -32q48 -7 79 -41.5t31 -80.5q0 -54 -39.5 -92.5t-104.5 -38.5q-89 0 -132 79z" />
    <glyph glyph-name="six.numr" horiz-adv-x="311" 
d="M327 700l-94 -120q46 -8 74.5 -42.5t28.5 -78.5q0 -54 -40.5 -91.5t-100.5 -37.5q-58 0 -96.5 35.5t-38.5 88.5q0 51 52 116l99 130h116zM168 494q-17 -20 -17 -40q0 -16 12.5 -27.5t30.5 -11.5q21 0 34 12.5t13 32.5q0 17 -12 28.5t-32 11.5q-15 0 -29 -6z" />
    <glyph glyph-name="seven.numr" horiz-adv-x="306" 
d="M163 340h-107l168 270h-122l15 90h250l-9 -50z" />
    <glyph glyph-name="eight.numr" horiz-adv-x="320" 
d="M346 461q0 -54 -41.5 -93t-101.5 -39t-98.5 36t-38.5 89q0 63 56 97q-11 19 -11 44q0 47 34.5 81t89.5 34q54 0 87.5 -33t33.5 -78q0 -41 -35 -71q25 -28 25 -67zM249 461q0 16 -11.5 27.5t-28.5 11.5q-20 0 -33 -13.5t-13 -32.5q0 -17 11.5 -28t28.5 -11q19 0 32.5 14
t13.5 32zM206 594q0 -11 7.5 -18.5t18.5 -7.5q13 0 21 9t8 21t-7 19.5t-19 7.5q-13 0 -21 -9t-8 -22z" />
    <glyph glyph-name="nine.numr" horiz-adv-x="316" 
d="M85 340l94 120q-46 8 -74.5 42.5t-28.5 78.5q0 54 40.5 91.5t100.5 37.5q58 0 96.5 -35.5t38.5 -88.5q0 -51 -52 -116l-99 -130h-116zM244 546q17 20 17 40q0 16 -12.5 27.5t-30.5 11.5q-21 0 -34 -12.5t-13 -32.5q0 -17 12 -28.5t32 -11.5q15 0 29 6z" />
    <glyph glyph-name="zero.dnom" horiz-adv-x="336" 
d="M201 225q0 55 -32 55q-27 0 -41.5 -47.5t-14.5 -97.5q0 -55 31 -55q27 0 42 47.5t15 97.5zM301 225q0 -43 -8 -82.5t-25 -75t-49 -56.5t-75 -21q-57 0 -94 37.5t-37 107.5q0 60 13.5 110t50 87.5t92.5 37.5q58 0 95 -37.5t37 -107.5z" />
    <glyph glyph-name="one.dnom" horiz-adv-x="260" 
d="M26 201l16 95l134 64h60l-63 -360h-101l42 241z" />
    <glyph glyph-name="two.dnom" horiz-adv-x="318" 
d="M114 247l-86 27q14 47 49 71.5t80 24.5q54 0 92.5 -34t38.5 -85q0 -58 -69 -122l-42 -39h98l-16 -90h-264l9 51l147 140q37 35 37 59q0 12 -9.5 21t-22.5 9q-30 0 -42 -33z" />
    <glyph glyph-name="three.dnom" horiz-adv-x="295" 
d="M256 121q0 -56 -40 -93.5t-107 -37.5q-77 0 -119 58l69 52q18 -25 48 -25q21 0 35 13t14 33q0 18 -13 30t-35 12q-18 0 -39 -8l10 52l60 68h-108l15 85h224l-9 -50l-70 -86q65 -29 65 -103z" />
    <glyph glyph-name="four.dnom" horiz-adv-x="359" 
d="M-6 120l247 240h60l-37 -215h65l-13 -75h-66l-12 -70h-91l12 70h-174zM125 145h48l10 60z" />
    <glyph glyph-name="five.dnom" horiz-adv-x="298" 
d="M-18 79l83 37q17 -31 47 -31q19 0 33 13t14 33q0 18 -13 31.5t-35 13.5q-20 0 -35 -11l-52 18l59 187h207l-14 -85h-118l-10 -32q48 -7 79 -41.5t31 -80.5q0 -54 -39.5 -92.5t-104.5 -38.5q-89 0 -132 79z" />
    <glyph glyph-name="six.dnom" horiz-adv-x="311" 
d="M267 360l-94 -120q46 -8 74.5 -42.5t28.5 -78.5q0 -54 -40.5 -91.5t-100.5 -37.5q-58 0 -96.5 35.5t-38.5 88.5q0 51 52 116l99 130h116zM108 154q-17 -20 -17 -40q0 -16 12.5 -27.5t30.5 -11.5q21 0 34 12.5t13 32.5q0 17 -12 28.5t-32 11.5q-15 0 -29 -6z" />
    <glyph glyph-name="seven.dnom" horiz-adv-x="306" 
d="M102 0h-107l168 270h-122l15 90h250l-9 -50z" />
    <glyph glyph-name="eight.dnom" horiz-adv-x="320" 
d="M285 122q0 -54 -41.5 -93t-101.5 -39t-98.5 36t-38.5 89q0 63 56 97q-11 19 -11 44q0 47 34.5 81t89.5 34q54 0 87.5 -33t33.5 -78q0 -41 -35 -71q25 -28 25 -67zM188 122q0 16 -11.5 27.5t-28.5 11.5q-20 0 -33 -13.5t-13 -32.5q0 -17 11.5 -28t28.5 -11q19 0 32.5 14
t13.5 32zM145 255q0 -11 7.5 -18.5t18.5 -7.5q13 0 21 9t8 21t-7 19.5t-19 7.5q-13 0 -21 -9t-8 -22z" />
    <glyph glyph-name="nine.dnom" horiz-adv-x="316" 
d="M24 0l94 120q-46 8 -74.5 42.5t-28.5 78.5q0 54 40.5 91.5t100.5 37.5q58 0 96.5 -35.5t38.5 -88.5q0 -51 -52 -116l-99 -130h-116zM183 206q17 20 17 40q0 16 -12.5 27.5t-30.5 11.5q-21 0 -34 -12.5t-13 -32.5q0 -17 12 -28.5t32 -11.5q16 0 29 6z" />
    <glyph glyph-name="quotedbl.tf" 
d="M330 700l-64 -245h-90l23 245h131zM540 700l-64 -245h-90l23 245h131z" />
    <glyph glyph-name="numbersign.tf" 
d="M268 405l-30 -110h126l30 110h-126zM64 515h120l49 185h114l-49 -185h126l49 185h114l-49 -185h110l-20 -110h-119l-31 -110h110l-16 -110h-123l-49 -185h-114l49 185h-126l-49 -185h-114l49 185h-110l20 110h119l30 110h-110z" />
    <glyph glyph-name="dollar.tf" 
d="M19 106l93 85q64 -81 161 -81q43 0 78.5 25.5t35.5 68.5q0 34 -27 60.5t-65 46.5t-76 42.5t-65 61.5t-27 91q0 77 53.5 132t137.5 68l19 109h121l-20 -114q84 -21 143 -81l-89 -88q-49 58 -123 58q-42 0 -75.5 -23.5t-33.5 -61.5q0 -25 27 -47t65 -42t76 -45t65 -67.5
t27 -98.5q0 -82 -59.5 -141.5t-148.5 -70.5l-19 -108h-121l20 115q-101 23 -173 106z" />
    <glyph glyph-name="quotesingle.tf" 
d="M444 700l-64 -245h-90l23 245h131z" />
    <glyph glyph-name="plus.tf" 
d="M81 335h175l32 175h111l-32 -175h175l-19 -110h-175l-31 -175h-111l31 175h-175z" />
    <glyph glyph-name="zero.tf" 
d="M433 461q0 129 -82 129q-42 0 -74.5 -34t-50.5 -88.5t-27 -113t-9 -115.5q0 -129 82 -129q42 0 74.5 34t50.5 88.5t27 113t9 115.5zM272 -10q-100 0 -158.5 64.5t-58.5 185.5q0 55 8 113t29 123.5t53 116t85.5 84t120.5 33.5q100 0 158.5 -64.5t58.5 -185.5
q0 -55 -8 -113t-29 -123.5t-53 -116t-85.5 -84t-120.5 -33.5z" />
    <glyph glyph-name="one.tf" 
d="M36 120h190l75 422l-161 -77l21 124l209 111h95l-103 -580h175l-21 -120h-501z" />
    <glyph glyph-name="two.tf" 
d="M231 502l-121 44q23 72 83.5 118t141.5 46q90 0 153.5 -58.5t63.5 -146.5q0 -100 -105 -205l-181 -180h230l-21 -120h-440l14 80l282 282q49 49 67.5 80t18.5 63q0 34 -24 59.5t-60 25.5q-41 0 -67 -26t-35 -62z" />
    <glyph glyph-name="three.tf" 
d="M571 620l-166 -166q58 -31 91.5 -85.5t33.5 -120.5q0 -107 -79 -182.5t-193 -75.5q-75 0 -135 35.5t-91 95.5l112 62q16 -33 46.5 -53t67.5 -20q57 0 97 40.5t40 97.5q0 51 -34.5 84t-85.5 33q-44 0 -82 -21l14 80l154 156h-224l21 120h427z" />
    <glyph glyph-name="four.tf" 
d="M460 700h95l-74 -420h120l-21 -120h-120l-29 -160h-136l29 160h-325l14 80zM214 280h131l29 164z" />
    <glyph glyph-name="five.tf" 
d="M39 108l107 68q16 -31 45.5 -48.5t63.5 -17.5q55 0 93.5 39.5t38.5 93.5q0 48 -32.5 80t-79.5 32q-59 0 -98 -45l-78 21l116 369h346l-21 -120h-233l-34 -111q14 2 28 2q93 0 157 -68t64 -160q0 -105 -76.5 -179t-190.5 -74q-70 0 -126.5 32t-89.5 86z" />
    <glyph glyph-name="six.tf" 
d="M512 700l-178 -222q92 -11 154 -76t62 -159q0 -105 -77 -179t-185 -74t-180.5 68.5t-72.5 168.5q0 40 16.5 81t30 60t39.5 52l224 280h167zM293 360q-34 0 -61 -9q-20 -21 -30.5 -34t-22 -38.5t-11.5 -51.5q0 -51 35 -84t85 -33q53 0 90 39.5t37 93.5q0 53 -34.5 85
t-87.5 32z" />
    <glyph glyph-name="seven.tf" 
d="M124 580l21 120h470l-14 -80l-409 -620h-152l385 580h-301z" />
    <glyph glyph-name="eight.tf" 
d="M136 505q0 87 60 146t150 59q87 0 142.5 -55t55.5 -129q0 -94 -75 -151q62 -56 62 -141q0 -103 -71.5 -173.5t-178.5 -70.5q-99 0 -166.5 62t-67.5 149q0 69 32.5 121.5t88.5 81.5q-32 41 -32 101zM396 226q0 43 -27.5 71t-71.5 28q-47 0 -81 -34.5t-34 -81.5
q0 -43 27.5 -71t71.5 -28q47 0 81 34.5t34 81.5zM409 523q0 29 -17.5 48t-45.5 19q-31 0 -53 -23t-22 -55q0 -29 17.5 -48t45.5 -19q31 0 53 23t22 55z" />
    <glyph glyph-name="nine.tf" 
d="M118 0l178 222q-92 11 -154 76t-62 159q0 105 77 179t185 74t180.5 -68.5t72.5 -168.5q0 -40 -16.5 -81t-30 -60t-39.5 -52l-224 -280h-167zM337 340q34 0 61 9q20 21 30.5 34t22 38.5t11.5 51.5q0 51 -35 84t-85 33q-53 0 -90 -39.5t-37 -93.5q0 -53 34.5 -85t87.5 -32z
" />
    <glyph glyph-name="less.tf" 
d="M510 155l-20 -112l-425 202l12 70l497 200l-24 -129l-285 -115z" />
    <glyph glyph-name="equal.tf" 
d="M99 440h461l-19 -110h-461zM62 230h461l-19 -110h-461z" />
    <glyph glyph-name="greater.tf" 
d="M92 405l20 112l425 -202l-12 -70l-497 -200l24 129l285 115z" />
    <glyph glyph-name="asciicircum.tf" 
d="M322 700h90l123 -350h-117l-69 199l-140 -199h-134z" />
    <glyph glyph-name="asciitilde.tf" 
d="M485 370l98 -48q-19 -63 -65 -101t-113 -38q-43 0 -82.5 21t-69 42t-50.5 21q-27 0 -43.5 -19.5t-33.5 -57.5l-98 48q19 63 65 101t113 38q43 0 82.5 -21t69 -42t50.5 -21q27 0 43.5 19.5t33.5 57.5z" />
    <glyph glyph-name="cent.tf" 
d="M435 153l77 -88q-74 -69 -169 -74l-19 -106h-121l22 123q-70 27 -111.5 86.5t-41.5 135.5q0 96 63.5 166.5t157.5 84.5l21 109h121l-21 -116q72 -21 122 -78l-85 -79q-48 48 -110 48q-54 0 -96.5 -39t-42.5 -96q0 -50 36.5 -85t90.5 -35q57 0 106 43z" />
    <glyph glyph-name="sterling.tf" 
d="M303 405h134l-19 -110h-99v-9q0 -95 -58 -166h265l-21 -120h-500l14 80q162 46 170 215h-111l19 110h73q-12 45 -12 79q0 103 66.5 164.5t159.5 61.5q58 0 110 -27.5t84 -77.5l-98 -70q-33 55 -94 55q-39 0 -68.5 -28.5t-29.5 -73.5q0 -21 15 -83z" />
    <glyph glyph-name="currency.tf" 
d="M84 351q0 54 26 100l-80 80l85 85l80 -80q46 26 100 26q55 0 101 -26l79 80l85 -85l-79 -80q25 -47 25 -100q0 -54 -25 -101l79 -79l-85 -85l-79 79q-47 -25 -101 -25q-53 0 -100 25l-80 -79l-85 85l80 79q-26 46 -26 101zM214 351q0 -34 23.5 -57.5t57.5 -23.5
t57.5 23.5t23.5 57.5t-23.5 57.5t-57.5 23.5t-57.5 -23.5t-23.5 -57.5z" />
    <glyph glyph-name="yen.tf" 
d="M686 700l-173 -215h86l-19 -110h-155l-40 -50h186l-20 -110h-192l-38 -215h-136l38 215h-193l20 110h186l-23 50h-154l20 110h85l-96 215h143l110 -247l196 247h169z" />
    <glyph glyph-name="section.tf" 
d="M404 208q0 24 -17.5 44t-37 31t-57.5 30t-57 31q-49 -27 -49 -72q0 -24 17 -44.5t36.5 -31.5t57.5 -30t57 -30q50 25 50 72zM326 -25q0 28 -28.5 50.5t-68.5 41t-80.5 41.5t-69 64t-28.5 97q0 104 94 166q-14 31 -14 71q0 88 68.5 146t168.5 58q130 0 217 -90l-89 -88
q-49 58 -123 58q-42 0 -75.5 -23.5t-33.5 -61.5q0 -28 28.5 -50.5t69 -41t80.5 -41.5t68.5 -64t28.5 -97q0 -103 -94 -166q14 -31 14 -71q0 -88 -68.5 -146t-168.5 -58q-130 0 -217 90l89 88q49 -58 123 -58q42 0 75.5 23.5t33.5 61.5z" />
    <glyph glyph-name="logicalnot.tf" 
d="M504 120h-111l37 210h-350l19 110h461z" />
    <glyph glyph-name="plusminus.tf" 
d="M360 294l-23 -126h-111l23 126h-175l19 110h175l23 126h111l-23 -126h175l-19 -110h-175zM45 140h461l-19 -110h-461z" />
    <glyph glyph-name="mu.tf" 
d="M-29 -235l126 710h131l-38 -213q-6 -35 -6 -57q0 -40 25 -67.5t67 -27.5q62 0 122 60l54 305h131l-84 -475h-121l7 35q-65 -45 -128 -45q-59 0 -109 34l-46 -259h-131z" />
    <glyph glyph-name="multiply.tf" 
d="M192 496l116 -138l165 138l71 -85l-164 -138l116 -138l-84 -71l-117 138l-164 -138l-71 85l164 138l-116 138z" />
    <glyph glyph-name="divide.tf" 
d="M81 335h461l-19 -110h-461zM196 103q0 31 22 52t53 21t53 -21t22 -52t-22 -52t-53 -21t-53 21t-22 52zM258 457q0 31 22 52t53 21t53 -21t22 -52t-22 -52t-53 -21t-53 21t-22 52z" />
    <glyph glyph-name="florin.tf" 
d="M-35 -229l33 108q36 -14 66 -14q91 0 120 93q6 19 11.5 45.5t9.5 48t9.5 59.5t7.5 57t7.5 66t7.5 61h-160l20 110h154q15 99 27 138q54 177 243 177q52 0 99 -21l-33 -108q-36 14 -66 14q-91 0 -120 -93q-12 -35 -24 -107h170l-20 -110h-166q-4 -30 -12 -100.5
t-12.5 -108t-13 -84.5t-16.5 -75q-54 -177 -243 -177q-52 0 -99 21z" />
    <glyph glyph-name="pi.tf" 
d="M93 0l61 349q-35 -4 -66 -37l-69 87q39 40 85 55.5t111 15.5h400l-19 -110h-100l-36 -207q-5 -27 -5 -42q0 -29 20 -53l-96 -68q-46 51 -46 108q0 23 7 63l35 199h-98l-63 -360h-121z" />
    <glyph glyph-name="Euro.tf" 
d="M431 215h-225q25 -50 70 -77.5t98 -27.5q86 0 157 80l89 -84q-43 -52 -109 -84t-139 -32q-106 0 -189 61t-116 164h-107l20 110h70v5q0 15 2 45h-63l20 110h71q42 101 128.5 163t193.5 62q163 0 259 -123l-87 -75q-68 78 -165 78q-55 0 -103.5 -28t-80.5 -77h255
l-20 -110h-277q-3 -23 -3 -45v-5h271z" />
    <glyph glyph-name="partialdiff.tf" 
d="M214 710h137l134 -245q36 -66 52 -113.5t16 -103.5q0 -106 -79 -182t-187 -76q-107 0 -178.5 68.5t-71.5 168.5q0 107 79.5 182.5t188.5 75.5q20 0 32 -2zM406 336q-38 29 -92 29q-61 0 -104 -39.5t-43 -98.5q0 -51 34.5 -84t85.5 -33q58 0 98 43t40 101q0 46 -19 82z
" />
    <glyph glyph-name="Delta.tf" 
d="M422 700l128 -630l-12 -70h-568l12 70l350 630h90zM349 506l-219 -396h300z" />
    <glyph glyph-name="product.tf" 
d="M309 0l105 590h-118l-105 -590h-121l105 590h-100l19 110h560l-19 -110h-100l-105 -590h-121z" />
    <glyph glyph-name="summation.tf" 
d="M494 590h-212l154 -193l-12 -70l-225 -217h220l18 100h121l-37 -210h-551l12 70l315 305l-205 255l12 70h531l-37 -210h-122z" />
    <glyph glyph-name="minus.tf" 
d="M81 335h461l-19 -110h-461z" />
    <glyph glyph-name="radical.tf" 
d="M44 475h167l71 -290l284 515h124l-384 -700h-90l-91 365h-100z" />
    <glyph glyph-name="integral.tf" 
d="M-45 -229l33 108q36 -14 66 -14q91 0 120 93q23 74 49 298.5t45 286.5q54 177 243 177q52 0 99 -21l-33 -108q-36 14 -66 14q-91 0 -120 -93q-23 -74 -49 -298.5t-45 -286.5q-54 -177 -243 -177q-52 0 -99 21z" />
    <glyph glyph-name="approxequal.tf" 
d="M462 260l98 -48q-19 -63 -65 -101t-113 -38q-43 0 -82.5 21t-69 42t-50.5 21q-27 0 -43.5 -19.5t-33.5 -57.5l-98 48q19 63 65 101t113 38q43 0 82.5 -21t69 -42t50.5 -21q27 0 43.5 19.5t33.5 57.5zM501 480l98 -48q-19 -63 -65 -101t-113 -38q-43 0 -82.5 21t-69 42
t-50.5 21q-27 0 -43.5 -19.5t-33.5 -57.5l-98 48q19 63 65 101t113 38q43 0 82.5 -21t69 -42t50.5 -21q27 0 43.5 19.5t33.5 57.5z" />
    <glyph glyph-name="notequal.tf" 
d="M62 230h134l74 100h-190l19 110h253l82 110h137l-82 -110h71l-19 -110h-134l-74 -100h190l-19 -110h-253l-82 -110h-137l82 110h-71z" />
    <glyph glyph-name="lessequal.tf" 
d="M531 273l-20 -109l-434 150l12 70l488 151l-22 -122l-226 -70zM45 140h461l-19 -110h-461z" />
    <glyph glyph-name="greaterequal.tf" 
d="M45 140h461l-19 -110h-461zM95 426l20 109l434 -150l-12 -70l-488 -151l22 122l226 70z" />
    <glyph glyph-name="lozenge.tf" 
d="M60 315l12 70l256 315h90l144 -315l-12 -70l-256 -315h-90zM172 334l91 -198l187 229l-91 199z" />
    <glyph glyph-name="parenleft.case" horiz-adv-x="456" 
d="M400 810l89 -80q-92 -103 -145.5 -227.5t-53.5 -255.5q0 -159 67 -296l-100 -61q-87 160 -87 357q0 299 230 563z" />
    <glyph glyph-name="parenright.case" horiz-adv-x="456" 
d="M97 -110l-89 80q92 103 145.5 228t53.5 255q0 159 -67 296l100 61q87 -160 87 -357q0 -299 -230 -563z" />
    <glyph glyph-name="hyphen.case" horiz-adv-x="490" 
d="M111 430h330l-19 -110h-330z" />
    <glyph glyph-name="at.case" horiz-adv-x="1000" 
d="M415 341q0 -46 30 -76t77 -30q48 0 85 32q-2 8 -2 27q0 27 7 65l14 76q-36 30 -83 30q-54 0 -91 -35.5t-37 -88.5zM97 350q0 183 126.5 311.5t310.5 128.5q109 0 206.5 -54.5t157 -149t59.5 -203.5q0 -112 -52 -180t-146 -68q-65 0 -113 48q-50 -48 -133 -48
q-84 0 -146 60t-62 146q0 60 29.5 109.5t79.5 79.5q57 35 114 35q63 0 115 -34l4 24h111l-31 -174q-12 -78 -12 -87q0 -26 12.5 -42.5t36.5 -16.5q40 0 61.5 41.5t21.5 104.5q0 124 -96.5 211.5t-223.5 87.5q-133 0 -226.5 -96.5t-93.5 -233.5t93.5 -233.5t226.5 -96.5
q116 0 198 65l62 -91q-112 -84 -253 -84q-183 0 -310 128.5t-127 311.5z" />
    <glyph glyph-name="bracketleft.case" horiz-adv-x="456" 
d="M98 -100l160 900h276l-21 -115h-155l-118 -670h155l-21 -115h-276z" />
    <glyph glyph-name="bracketright.case" horiz-adv-x="456" 
d="M399 800l-160 -900h-276l21 115h155l118 670h-155l21 115h276z" />
    <glyph glyph-name="braceleft.case" horiz-adv-x="456" 
d="M342 16l-19 -115q-19 -1 -37 -1q-79 0 -122.5 37t-43.5 109q0 35 20 102t20 100q0 62 -82 62l16 80q97 0 109 70q5 31 7 83t6 82q11 95 69 135t142 40q39 0 54 -2l-21 -114q-10 1 -31 1q-82 0 -94 -70q-6 -31 -9 -77.5t-6 -67.5q-8 -64 -29.5 -92t-58.5 -40
q44 -25 44 -79q0 -37 -18.5 -102.5t-18.5 -85.5q0 -56 66 -56q18 0 37 1z" />
    <glyph glyph-name="bar.case" horiz-adv-x="278" 
d="M18 -100l160 900h121l-160 -900h-121z" />
    <glyph glyph-name="braceright.case" horiz-adv-x="456" 
d="M192 685q-18 0 -37 -1l19 115q19 1 37 1q79 0 122.5 -37t43.5 -109q0 -35 -20 -102t-20 -100q0 -62 82 -62l-16 -80q-97 0 -109 -70q-5 -31 -7 -83t-6 -82q-11 -95 -69 -135t-142 -40q-39 0 -54 2l21 114q10 -1 31 -1q82 0 94 70q6 31 9 77.5t6 67.5q8 64 29.5 92
t58.5 40q-44 25 -44 79q0 37 18.5 102.5t18.5 85.5q0 56 -66 56z" />
    <glyph glyph-name="guillemotleft.case" horiz-adv-x="655" 
d="M294 147h-130l-94 155l12 70l133 155h147l-176 -204zM564 147h-130l-94 155l12 70l133 155h147l-176 -204z" />
    <glyph glyph-name="periodcentered.case" horiz-adv-x="375" 
d="M115 350q0 37 25 61.5t62 24.5t62.5 -24.5t25.5 -61.5q0 -36 -25.5 -60.5t-62.5 -24.5t-62 24t-25 61z" />
    <glyph glyph-name="guillemotright.case" horiz-adv-x="655" 
d="M395 527h130l94 -155l-12 -70l-133 -155h-147l176 204zM125 527h130l94 -155l-12 -70l-133 -155h-147l176 204z" />
    <glyph glyph-name="endash.case" horiz-adv-x="520" 
d="M48 430h491l-19 -110h-491z" />
    <glyph glyph-name="emdash.case" horiz-adv-x="820" 
d="M48 430h791l-19 -110h-791z" />
    <glyph glyph-name="bullet.case" 
d="M90 350q0 91 64.5 155.5t155.5 64.5t155.5 -64.5t64.5 -155.5t-64.5 -155.5t-155.5 -64.5t-155.5 64.5t-64.5 155.5z" />
    <glyph glyph-name="guilsinglleft.case" horiz-adv-x="385" 
d="M294 147h-130l-94 155l12 70l133 155h147l-176 -204z" />
    <glyph glyph-name="guilsinglright.case" horiz-adv-x="385" 
d="M125 527h130l94 -155l-12 -70l-133 -155h-147l176 204z" />
    <glyph glyph-name="zero.zero" horiz-adv-x="593" 
d="M276 110q49 0 85 48t52.5 112.5t21.5 139.5l-210 -282q20 -18 51 -18zM355 590q-37 0 -67 -27t-48.5 -72t-29 -95t-14.5 -105l209 281q-21 18 -50 18zM276 -10q-100 0 -158.5 64.5t-58.5 185.5q0 55 8 113t29 123.5t53 116t85.5 84t120.5 33.5q100 0 158.5 -64.5
t58.5 -185.5q0 -55 -8 -113t-29 -123.5t-53 -116t-85.5 -84t-120.5 -33.5z" />
    <glyph glyph-name="uni2070.zero" horiz-adv-x="322" 
d="M361 565q0 -43 -8 -82.5t-25 -75t-49 -56.5t-75 -21q-57 0 -94 37.5t-37 107.5q0 60 13.5 110t50 87.5t92.5 37.5q58 0 95 -37.5t37 -107.5zM229 620q-21 0 -34.5 -29.5t-18.5 -71.5l70 95q-6 6 -17 6zM204 420q21 0 34.5 29.5t18.5 71.5l-70 -95q6 -6 17 -6z" />
    <glyph glyph-name="uni2080.zero" horiz-adv-x="336" 
d="M301 225q0 -43 -8 -82.5t-25 -75t-49 -56.5t-75 -21q-57 0 -94 37.5t-37 107.5q0 60 13.5 110t50 87.5t92.5 37.5q58 0 95 -37.5t37 -107.5zM169 280q-21 0 -34.5 -29.5t-18.5 -71.5l70 95q-6 6 -17 6zM144 80q21 0 34.5 29.5t18.5 71.5l-70 -95q6 -6 17 -6z" />
    <glyph glyph-name="zero.numr.zero" horiz-adv-x="322" 
d="M361 565q0 -43 -8 -82.5t-25 -75t-49 -56.5t-75 -21q-57 0 -94 37.5t-37 107.5q0 60 13.5 110t50 87.5t92.5 37.5q58 0 95 -37.5t37 -107.5zM229 620q-21 0 -34.5 -29.5t-18.5 -71.5l70 95q-6 6 -17 6zM204 420q21 0 34.5 29.5t18.5 71.5l-70 -95q6 -6 17 -6z" />
    <glyph glyph-name="zero.dnom.zero" horiz-adv-x="336" 
d="M301 225q0 -43 -8 -82.5t-25 -75t-49 -56.5t-75 -21q-57 0 -94 37.5t-37 107.5q0 60 13.5 110t50 87.5t92.5 37.5q58 0 95 -37.5t37 -107.5zM169 280q-21 0 -34.5 -29.5t-18.5 -71.5l70 95q-6 6 -17 6zM144 80q21 0 34.5 29.5t18.5 71.5l-70 -95q6 -6 17 -6z" />
    <glyph glyph-name="zero.tf.zero" 
d="M272 110q49 0 85 48t52.5 112.5t21.5 139.5l-210 -282q19 -18 51 -18zM351 590q-37 0 -67 -27t-48.5 -72t-29 -95t-14.5 -105l209 281q-21 18 -50 18zM272 -10q-100 0 -158.5 64.5t-58.5 185.5q0 55 8 113t29 123.5t53 116t85.5 84t120.5 33.5q100 0 158.5 -64.5
t58.5 -185.5q0 -55 -8 -113t-29 -123.5t-53 -116t-85.5 -84t-120.5 -33.5z" />
    <glyph glyph-name="a.ss01" horiz-adv-x="539" 
d="M327 155l4 31q-36 19 -81 19q-34 0 -60.5 -14t-26.5 -43q0 -22 17.5 -35t43.5 -13q60 0 103 55zM430 0h-121l7 35q-45 -45 -117 -45q-63 0 -113.5 44t-50.5 110q0 73 59 119.5t139 46.5q62 0 115 -28q2 8 2 19q0 34 -29.5 54t-69.5 20q-64 0 -120 -26l-35 102
q70 34 160 34q88 0 155.5 -50t67.5 -128q0 -25 -10 -87z" />
    <glyph glyph-name="agrave.ss01" horiz-adv-x="539" 
d="M166 710h140l70 -160h-90zM327 155l4 31q-36 19 -81 19q-34 0 -60.5 -14t-26.5 -43q0 -22 17.5 -35t43.5 -13q60 0 103 55zM430 0h-121l7 35q-45 -45 -117 -45q-63 0 -113.5 44t-50.5 110q0 73 59 119.5t139 46.5q62 0 115 -28q2 8 2 19q0 34 -29.5 54t-69.5 20
q-64 0 -120 -26l-35 102q70 34 160 34q88 0 155.5 -50t67.5 -128q0 -25 -10 -87z" />
    <glyph glyph-name="aacute.ss01" horiz-adv-x="539" 
d="M315 710h140l-120 -160h-90zM327 155l4 31q-36 19 -81 19q-34 0 -60.5 -14t-26.5 -43q0 -22 17.5 -35t43.5 -13q60 0 103 55zM430 0h-121l7 35q-45 -45 -117 -45q-63 0 -113.5 44t-50.5 110q0 73 59 119.5t139 46.5q62 0 115 -28q2 8 2 19q0 34 -29.5 54t-69.5 20
q-64 0 -120 -26l-35 102q70 34 160 34q88 0 155.5 -50t67.5 -128q0 -25 -10 -87z" />
    <glyph glyph-name="acircumflex.ss01" horiz-adv-x="539" 
d="M406 710l70 -160h-85l-65 90l-95 -90h-95l130 160h140zM327 155l4 31q-36 19 -81 19q-34 0 -60.5 -14t-26.5 -43q0 -22 17.5 -35t43.5 -13q60 0 103 55zM430 0h-121l7 35q-45 -45 -117 -45q-63 0 -113.5 44t-50.5 110q0 73 59 119.5t139 46.5q62 0 115 -28q2 8 2 19
q0 34 -29.5 54t-69.5 20q-64 0 -120 -26l-35 102q70 34 160 34q88 0 155.5 -50t67.5 -128q0 -25 -10 -87z" />
    <glyph glyph-name="atilde.ss01" horiz-adv-x="539" 
d="M327 155l4 31q-36 19 -81 19q-34 0 -60.5 -14t-26.5 -43q0 -22 17.5 -35t43.5 -13q60 0 103 55zM430 0h-121l7 35q-45 -45 -117 -45q-63 0 -113.5 44t-50.5 110q0 73 59 119.5t139 46.5q62 0 115 -28q2 8 2 19q0 34 -29.5 54t-69.5 20q-64 0 -120 -26l-35 102
q70 34 160 34q88 0 155.5 -50t67.5 -128q0 -25 -10 -87zM435 710l80 -16q0 -57 -29.5 -95.5t-81.5 -38.5q-32 0 -81 25t-68 25q-35 0 -40 -50l-80 16q0 57 29.5 95.5t81.5 38.5q32 0 81 -25t68 -25q35 0 40 50z" />
    <glyph glyph-name="adieresis.ss01" horiz-adv-x="539" 
d="M145 632q0 33 23.5 55.5t56.5 22.5t56.5 -22.5t23.5 -55.5t-23.5 -55.5t-56.5 -22.5t-56.5 22.5t-23.5 55.5zM355 632q0 33 23.5 55.5t56.5 22.5t56.5 -22.5t23.5 -55.5t-23.5 -55.5t-56.5 -22.5t-56.5 22.5t-23.5 55.5zM327 155l4 31q-36 19 -81 19q-34 0 -60.5 -14
t-26.5 -43q0 -22 17.5 -35t43.5 -13q60 0 103 55zM430 0h-121l7 35q-45 -45 -117 -45q-63 0 -113.5 44t-50.5 110q0 73 59 119.5t139 46.5q62 0 115 -28q2 8 2 19q0 34 -29.5 54t-69.5 20q-64 0 -120 -26l-35 102q70 34 160 34q88 0 155.5 -50t67.5 -128q0 -25 -10 -87z" />
    <glyph glyph-name="aring.ss01" horiz-adv-x="539" 
d="M215 640q0 46 32 78t78 32t78 -32t32 -78t-32 -78t-78 -32t-78 32t-32 78zM295 640q0 -13 8.5 -21.5t21.5 -8.5t21.5 8.5t8.5 21.5t-8.5 21.5t-21.5 8.5t-21.5 -8.5t-8.5 -21.5zM327 155l4 31q-36 19 -81 19q-34 0 -60.5 -14t-26.5 -43q0 -22 17.5 -35t43.5 -13
q60 0 103 55zM430 0h-121l7 35q-45 -45 -117 -45q-63 0 -113.5 44t-50.5 110q0 73 59 119.5t139 46.5q62 0 115 -28q2 8 2 19q0 34 -29.5 54t-69.5 20q-64 0 -120 -26l-35 102q70 34 160 34q88 0 155.5 -50t67.5 -128q0 -25 -10 -87z" />
    <glyph glyph-name="ae.ss01" horiz-adv-x="844" 
d="M420 0h-111l7 35q-45 -45 -117 -45q-63 0 -113.5 44t-50.5 110q0 73 59 119.5t139 46.5q62 0 115 -28q2 8 2 19q0 34 -29.5 54t-69.5 20q-64 0 -120 -26l-35 102q70 34 160 34q107 0 171 -70q65 70 166 70q93 0 154.5 -63t61.5 -157q0 -31 -8 -61h-337q4 -47 39 -78
t93 -31q63 0 123 37l54 -88q-77 -54 -178 -54q-100 0 -166 60zM327 155l4 31q-36 19 -81 19q-34 0 -60.5 -14t-26.5 -43q0 -22 17.5 -35t43.5 -13q60 0 103 55zM479 296h207q-3 37 -29 60.5t-65 23.5t-69 -22.5t-44 -61.5z" />
    <glyph glyph-name="amacron.ss01" horiz-adv-x="539" 
d="M160 680h320v-100h-320v100zM327 155l4 31q-36 19 -81 19q-34 0 -60.5 -14t-26.5 -43q0 -22 17.5 -35t43.5 -13q60 0 103 55zM430 0h-121l7 35q-45 -45 -117 -45q-63 0 -113.5 44t-50.5 110q0 73 59 119.5t139 46.5q62 0 115 -28q2 8 2 19q0 34 -29.5 54t-69.5 20
q-64 0 -120 -26l-35 102q70 34 160 34q88 0 155.5 -50t67.5 -128q0 -25 -10 -87z" />
    <glyph glyph-name="abreve.ss01" horiz-adv-x="539" 
d="M365 710h105q0 -62 -44 -106t-106 -44t-106 44t-44 106h105q0 -19 13 -32t32 -13t32 13t13 32zM327 155l4 31q-36 19 -81 19q-34 0 -60.5 -14t-26.5 -43q0 -22 17.5 -35t43.5 -13q60 0 103 55zM430 0h-121l7 35q-45 -45 -117 -45q-63 0 -113.5 44t-50.5 110
q0 73 59 119.5t139 46.5q62 0 115 -28q2 8 2 19q0 34 -29.5 54t-69.5 20q-64 0 -120 -26l-35 102q70 34 160 34q88 0 155.5 -50t67.5 -128q0 -25 -10 -87z" />
    <glyph glyph-name="aogonek.ss01" horiz-adv-x="539" 
d="M430 0q-25 -36 -25 -63q0 -18 11 -30t29 -12q13 0 25 4l15 -109q-20 -10 -65 -10q-61 0 -98 34.5t-37 85.5q0 55 30 100h-6l7 35q-45 -45 -117 -45q-63 0 -113.5 44t-50.5 110q0 73 59 119.5t139 46.5q62 0 115 -28q2 8 2 19q0 34 -29.5 54t-69.5 20q-64 0 -120 -26
l-35 102q70 34 160 34q88 0 155.5 -50t67.5 -128q0 -25 -10 -87zM327 155l4 31q-36 19 -81 19q-34 0 -60.5 -14t-26.5 -43q0 -22 17.5 -35t43.5 -13q60 0 103 55z" />
    <glyph glyph-name="aringacute.ss01" horiz-adv-x="539" 
d="M220 640q0 46 32 78t78 32t78 -32t32 -78t-32 -78t-78 -32t-78 32t-32 78zM300 640q0 -13 8.5 -21.5t21.5 -8.5t21.5 8.5t8.5 21.5t-8.5 21.5t-21.5 8.5t-21.5 -8.5t-8.5 -21.5zM371 940h140l-120 -160h-90zM332 155l4 31q-36 19 -81 19q-34 0 -60.5 -14t-26.5 -43
q0 -22 17.5 -35t43.5 -13q60 0 103 55zM435 0h-121l7 35q-45 -45 -117 -45q-63 0 -113.5 44t-50.5 110q0 73 59 119.5t139 46.5q62 0 115 -28q2 8 2 19q0 34 -29.5 54t-69.5 20q-64 0 -120 -26l-35 102q70 34 160 34q88 0 155.5 -50t67.5 -128q0 -25 -10 -87z" />
    <glyph glyph-name="aeacute.ss01" horiz-adv-x="844" 
d="M481 710h140l-120 -160h-90zM420 0h-111l7 35q-45 -45 -117 -45q-63 0 -113.5 44t-50.5 110q0 73 59 119.5t139 46.5q62 0 115 -28q2 8 2 19q0 34 -29.5 54t-69.5 20q-64 0 -120 -26l-35 102q70 34 160 34q107 0 171 -70q65 70 166 70q93 0 154.5 -63t61.5 -157
q0 -31 -8 -61h-337q4 -47 39 -78t93 -31q63 0 123 37l54 -88q-77 -54 -178 -54q-100 0 -166 60zM327 155l4 31q-36 19 -81 19q-34 0 -60.5 -14t-26.5 -43q0 -22 17.5 -35t43.5 -13q60 0 103 55zM479 296h207q-3 37 -29 60.5t-65 23.5t-69 -22.5t-44 -61.5z" />
    <glyph glyph-name="f.ss02" horiz-adv-x="508" 
d="M60 475h125l8 45q14 81 44 121q66 89 194 89q71 0 127 -30l-51 -102q-34 17 -74 17q-54 0 -82 -31q-19 -21 -27 -64l-8 -45h195l-20 -110h-195l-64 -365h-131l64 365h-125z" />
    <glyph glyph-name="j.ss02" horiz-adv-x="319" 
d="M-137 -227l44 104q27 -12 60 -12q39 0 65 23q24 22 31 62l93 525h131l-89 -503q-15 -85 -40 -125q-59 -97 -187 -97q-65 0 -108 23zM167 647q0 35 25 59t60 24t60 -24t25 -59t-25 -59t-60 -24t-60 24t-25 59z" />
    <glyph glyph-name="r.ss02" horiz-adv-x="455" 
d="M465 454l-58 -112q-34 23 -76 23q-33 0 -65.5 -20t-51.5 -45l-53 -300h-131l84 475h121l-8 -40q45 50 124 50q60 0 114 -31z" />
    <glyph glyph-name="t.ss02" horiz-adv-x="531" 
d="M35 365l20 110h135l23 135h131l-23 -135h205l-20 -110h-205l-24 -134q-7 -35 -7 -54q0 -72 85 -72q35 0 72 14l39 -103q-52 -26 -124 -26q-85 0 -143.5 51t-58.5 134q0 21 9 72l21 118h-135z" />
    <glyph glyph-name="ij.ss02" horiz-adv-x="596" 
d="M114 475h131l-84 -475h-131zM125 647q0 35 25 59t60 24t60 -24t25 -59t-25 -59t-60 -24t-60 24t-25 59zM140 -227l44 104q27 -12 60 -12q82 0 96 85l93 525h131l-89 -503q-21 -117 -75 -169.5t-152 -52.5q-65 0 -108 23zM444 647q0 35 25 59t60 24t60 -24t25 -59t-25 -59
t-60 -24t-60 24t-25 59z" />
    <glyph glyph-name="jcircumflex.ss02" horiz-adv-x="319" 
d="M-137 -227l44 104q27 -12 60 -12q39 0 65 23q24 22 31 62l93 525h131l-89 -503q-15 -85 -40 -125q-59 -97 -187 -97q-65 0 -108 23zM324 710l70 -160h-85l-65 90l-95 -90h-95l130 160h140z" />
    <glyph glyph-name="racute.ss02" horiz-adv-x="455" 
d="M262 710h140l-120 -160h-90zM465 454l-58 -112q-34 23 -76 23q-33 0 -65.5 -20t-51.5 -45l-53 -300h-131l84 475h121l-8 -40q45 50 124 50q60 0 114 -31z" />
    <glyph glyph-name="rcommaaccent.ss02" horiz-adv-x="455" 
d="M20 -60h140l-120 -160h-90zM465 454l-58 -112q-34 23 -76 23q-33 0 -65.5 -20t-51.5 -45l-53 -300h-131l84 475h121l-8 -40q45 50 124 50q60 0 114 -31z" />
    <glyph glyph-name="rcaron.ss02" horiz-adv-x="455" 
d="M208 550l-70 160h85l65 -90l95 90h95l-130 -160h-140zM465 454l-58 -112q-34 23 -76 23q-33 0 -65.5 -20t-51.5 -45l-53 -300h-131l84 475h121l-8 -40q45 50 124 50q60 0 114 -31z" />
    <glyph glyph-name="tcommaaccent.ss02" horiz-adv-x="531" 
d="M220 -60h140l-120 -160h-90zM35 365l20 110h135l23 135h131l-23 -135h205l-20 -110h-205l-24 -134q-7 -35 -7 -54q0 -72 85 -72q35 0 72 14l39 -103q-52 -26 -124 -26q-85 0 -143.5 51t-58.5 134q0 21 9 72l21 118h-135z" />
    <glyph glyph-name="tcaron.ss02" horiz-adv-x="531" 
d="M452 700h140l-120 -160h-90zM35 365l20 110h135l23 135h131l-23 -135h205l-20 -110h-205l-24 -134q-7 -35 -7 -54q0 -72 85 -72q35 0 72 14l39 -103q-52 -26 -124 -26q-85 0 -143.5 51t-58.5 134q0 21 9 72l21 118h-135z" />
    <glyph glyph-name="tbar.ss02" horiz-adv-x="531" 
d="M35 365l20 110h135l23 135h131l-23 -135h205l-20 -110h-205l-11 -60h205l-20 -110h-204q-1 -7 -1 -18q0 -72 85 -72q35 0 72 14l39 -103q-52 -26 -124 -26q-85 0 -143.5 51t-58.5 134q0 12 1 20h-137l20 110h135l11 60h-135z" />
    <glyph glyph-name="uni0237.ss02" horiz-adv-x="319" 
d="M-137 -227l44 104q27 -12 60 -12q39 0 65 23q24 22 31 62l93 525h131l-89 -503q-15 -85 -40 -125q-59 -97 -187 -97q-65 0 -108 23z" />
    <glyph glyph-name="uniFB00.ss02" horiz-adv-x="941" 
d="M60 475h125l8 45q14 81 44 121q66 89 194 89q71 0 127 -30l-51 -102q-34 17 -74 17q-54 0 -82 -31q-19 -21 -27 -64l-8 -45h302l8 45q14 81 44 121q66 89 194 89q71 0 127 -30l-51 -102q-34 17 -74 17q-54 0 -82 -31q-19 -21 -27 -64l-8 -45h195l-20 -110h-195l-64 -365
h-131l64 365h-302l-64 -365h-131l64 365h-125z" />
    <glyph glyph-name="fi.ss02" horiz-adv-x="745" 
d="M316 475h397l-84 -475h-131l64 365h-266l-64 -365h-131l64 365h-125l20 110h125l8 45q14 81 44 121q66 89 194 89q71 0 127 -30l-51 -102q-34 17 -74 17q-54 0 -82 -31q-19 -21 -27 -64zM593 647q0 35 25 59t60 24t60 -24t25 -59t-25 -59t-60 -24t-60 24t-25 59z" />
    <glyph glyph-name="fl.ss02" horiz-adv-x="745" 
d="M498 0l65 365h-267l-64 -365h-131l64 365h-125l20 110h125l8 45q14 81 44 121q66 89 194 89q71 0 127 -30l-51 -102q-34 17 -74 17q-54 0 -82 -31q-19 -21 -27 -64l-8 -45h266l42 235h131l-126 -710h-131z" />
    <glyph glyph-name="uniFB03.ss02" horiz-adv-x="1178" 
d="M749 475h397l-84 -475h-131l64 365h-266l-64 -365h-131l64 365h-302l-64 -365h-131l64 365h-125l20 110h125l8 45q14 81 44 121q66 89 194 89q71 0 127 -30l-51 -102q-34 17 -74 17q-54 0 -82 -31q-19 -21 -27 -64l-8 -45h302l8 45q14 81 44 121q66 89 194 89
q71 0 127 -30l-51 -102q-34 17 -74 17q-54 0 -82 -31q-19 -21 -27 -64zM1026 647q0 35 25 59t60 24t60 -24t25 -59t-25 -59t-60 -24t-60 24t-25 59z" />
    <glyph glyph-name="uniFB04.ss02" horiz-adv-x="1178" 
d="M931 0l65 365h-267l-64 -365h-131l64 365h-302l-64 -365h-131l64 365h-125l20 110h125l8 45q14 81 44 121q66 89 194 89q71 0 127 -30l-51 -102q-34 17 -74 17q-54 0 -82 -31q-19 -21 -27 -64l-8 -45h302l8 45q14 81 44 121q66 89 194 89q71 0 127 -30l-51 -102
q-34 17 -74 17q-54 0 -82 -31q-19 -21 -27 -64l-8 -45h266l42 235h131l-126 -710h-131z" />
    <glyph glyph-name="parenleft.ss03" horiz-adv-x="456" 
d="M322 710l107 -54q-139 -195 -139 -409q0 -107 32 -209l-109 -48q-43 121 -43 257q0 242 152 463z" />
    <glyph glyph-name="parenright.ss03" horiz-adv-x="456" 
d="M175 -10l-107 54q139 195 139 409q0 107 -32 209l109 48q43 -121 43 -257q0 -242 -152 -463z" />
    <glyph glyph-name="bracketleft.ss03" horiz-adv-x="456" 
d="M115 0l125 700h276l-21 -115h-155l-83 -470h155l-21 -115h-276z" />
    <glyph glyph-name="bracketright.ss03" horiz-adv-x="456" 
d="M381 700l-125 -700h-276l21 115h155l83 470h-155l21 115h276z" />
    <glyph glyph-name="braceleft.ss03" horiz-adv-x="456" 
d="M236 350q45 -27 45 -84q0 -18 -5 -46l-4 -22q-5 -28 -5 -40q0 -43 56 -43h37l-20 -115h-20q-80 0 -126 37t-46 109q0 29 7 69q5 38 5 42q0 53 -82 53l16 80q94 0 105 70l9 60q15 100 67 140t142 40h46l-21 -115h-37q-35 0 -54 -16q-16 -14 -23 -54l-6 -35
q-8 -47 -22.5 -75t-27.5 -37t-36 -18z" />
    <glyph glyph-name="bar.ss03" horiz-adv-x="278" 
d="M35 0l125 700h121l-125 -700h-121z" />
    <glyph glyph-name="braceright.ss03" horiz-adv-x="456" 
d="M261 350q-45 27 -45 84q0 18 5 46l4 22q5 28 5 40q0 43 -56 43h-37l20 115h20q80 0 126 -37t46 -109q0 -29 -7 -69q-5 -37 -5 -42q0 -53 82 -53l-16 -80q-94 0 -105 -70l-9 -60q-15 -100 -67 -140t-142 -40h-46l21 115h37q35 0 54 16q16 14 23 54l6 35q8 47 22.5 75
t27.5 37t36 18z" />
    <glyph glyph-name="endash.ss04" horiz-adv-x="1120" 
d="M29 315h1091l-19 -110h-1091z" />
    <glyph glyph-name="emdash.ss04" horiz-adv-x="1420" 
d="M29 315h1391l-19 -110h-1391z" />
    <glyph glyph-name="endash.case.ss04" horiz-adv-x="1120" 
d="M48 430h1091l-19 -110h-1091z" />
    <glyph glyph-name="emdash.case.ss04" horiz-adv-x="1420" 
d="M48 430h1391l-19 -110h-1391z" />
    <glyph glyph-name="asterisk.ss05" horiz-adv-x="516" 
d="M314 260h-110l22 125l-111 -57l-49 99l123 62l-100 70l63 91l108 -74l22 124h110l-22 -124l111 57l50 -99l-124 -62l100 -71l-63 -90l-107 74z" />
    <glyph glyph-name="asterisk.ss06" horiz-adv-x="516" 
d="M506 465l-38 -104l-128 45l-25 -146h-111l25 145l-142 -44l-33 105l164 50l-67 122l98 52l62 -113l106 113l81 -74l-104 -111z" />
    <glyph glyph-name="asterisk.ss07" horiz-adv-x="516" 
d="M532 535l-19 -109h-127l54 -119l-100 -46l-52 111l-83 -111l-88 66l75 99h-126l19 109h126l-54 119l100 46l52 -111l83 111l88 -66l-75 -99h127z" />
    <glyph glyph-name="asterisk.ss08" horiz-adv-x="516" 
d="M205 261l-88 66l74 98l96 -54zM480 634l-74 -98l-97 53l83 111zM340 261l-52 110l98 54l54 -118zM157 654l100 46l51 -110l-98 -54zM513 426h-126l19 109h126zM66 426l19 109h125l-19 -109h-125z" />
    <glyph glyph-name="asterisk.ss09" horiz-adv-x="516" 
d="M513 426h-169l20 109h168zM204 260l29 165h110l-29 -165h-110zM66 426l19 109h167l-20 -109h-166zM392 700l-29 -164h-110l29 164h110zM172 545l-61 72l83 71l61 -71zM424 416l61 -72l-83 -71l-61 71zM389 629l72 59l71 -83l-72 -60zM207 332l-72 -59l-71 83l72 60z" />
    <glyph glyph-name="f_f_i.ss02" horiz-adv-x="1178" 
d="M749 475h397l-84 -475h-131l64 365h-266l-64 -365h-131l64 365h-302l-64 -365h-131l64 365h-125l20 110h125l8 45q14 81 44 121q66 89 194 89q71 0 127 -30l-51 -102q-34 17 -74 17q-54 0 -82 -31q-19 -21 -27 -64l-8 -45h302l8 45q14 81 44 121q66 89 194 89
q71 0 127 -30l-51 -102q-34 17 -74 17q-54 0 -82 -31q-19 -21 -27 -64zM1026 647q0 35 25 59t60 24t60 -24t25 -59t-25 -59t-60 -24t-60 24t-25 59z" />
    <glyph glyph-name="f_f.ss02" horiz-adv-x="941" 
d="M60 475h125l8 45q14 81 44 121q66 89 194 89q71 0 127 -30l-51 -102q-34 17 -74 17q-54 0 -82 -31q-19 -21 -27 -64l-8 -45h302l8 45q14 81 44 121q66 89 194 89q71 0 127 -30l-51 -102q-34 17 -74 17q-54 0 -82 -31q-19 -21 -27 -64l-8 -45h195l-20 -110h-195l-64 -365
h-131l64 365h-302l-64 -365h-131l64 365h-125z" />
    <glyph glyph-name="f_l.ss02" horiz-adv-x="745" 
d="M498 0l65 365h-267l-64 -365h-131l64 365h-125l20 110h125l8 45q14 81 44 121q66 89 194 89q71 0 127 -30l-51 -102q-34 17 -74 17q-54 0 -82 -31q-19 -21 -27 -64l-8 -45h266l42 235h131l-126 -710h-131z" />
    <glyph glyph-name="f_i.ss02" horiz-adv-x="745" 
d="M316 475h397l-84 -475h-131l64 365h-266l-64 -365h-131l64 365h-125l20 110h125l8 45q14 81 44 121q66 89 194 89q71 0 127 -30l-51 -102q-34 17 -74 17q-54 0 -82 -31q-19 -21 -27 -64zM593 647q0 35 25 59t60 24t60 -24t25 -59t-25 -59t-60 -24t-60 24t-25 59z" />
    <glyph glyph-name="f_f_l.ss02" horiz-adv-x="1178" 
d="M931 0l65 365h-267l-64 -365h-131l64 365h-302l-64 -365h-131l64 365h-125l20 110h125l8 45q14 81 44 121q66 89 194 89q71 0 127 -30l-51 -102q-34 17 -74 17q-54 0 -82 -31q-19 -21 -27 -64l-8 -45h302l8 45q14 81 44 121q66 89 194 89q71 0 127 -30l-51 -102
q-34 17 -74 17q-54 0 -82 -31q-19 -21 -27 -64l-8 -45h266l42 235h131l-126 -710h-131z" />
    <glyph glyph-name="Ldot.latn_CAT" horiz-adv-x="538" 
d="M37 0l124 700h136l-103 -580h294l-21 -120h-430zM315 350q0 35 25 59t60 24t60 -24t25 -59t-25 -59t-60 -24t-60 24t-25 59z" />
    <glyph glyph-name="ldot.latn_CAT" horiz-adv-x="377" 
d="M30 0l126 710h131l-126 -710h-131zM265 350q0 35 25 59t60 24t60 -24t25 -59t-25 -59t-60 -24t-60 24t-25 59z" />
    <glyph glyph-name="uni00AD.case" horiz-adv-x="490" 
d="M111 405h330l-19 -110h-330z" />
    <glyph glyph-name="space.frac" horiz-adv-x="52" 
 />
    </font>
</defs>
</svg>
